bt.etree.org
etree.org Community Bittorrent Tracker
ArtistNorth Mississippi Allstars
ShowNorth Mississippi Allstars 2007-04-27 One Eyed Jacks New Orleans, LA
Report this as
non-Trade-Friendly
Email us
Torrentnma2007-04-27.flac.torrent (click to download)
Downloads asnma2007-04-27.flac
Info hashdddd924c1792f80799c253dd61c0a249001bf65d
db linkhttp://db.etree.org/shn/85430 | Show | Source
DescriptionNorth Mississippi Allstars
2007-04-27
One Eyed Jacks
New Orleans, LA

Source: AKG c460b/ck63(XY)>Dmod UA-5>H120
Location: left stack 30' back @ 9' high
Transfer: H120>USB>CDWAVE>FLAC
Taper: jkbyram

Show was one set

Disc 1
01. Shake What Your Mama Gave You
02. Conan
03. Samson & Delilah
04. My Leavin'
05. Going Down South
06. Write Me A Few Lines>
07. Drop Down Mama>
08. Someday Baby
09. Mud*
10. M.L.*
11. Oxford Town

Disc 2
01. Sitting on The Dock Of The Bay
02. Happy Song
03. Soldier
04. My Babe
05. Mean Ol World#
06. All Night Long#>
07. Lovelight#
08. No Mo
09. Mean Ol Wind Died Down
10. Everybody Needs Somebody%
11. Pallet%
12. If You's A Viper%

Disc 3
01. Eyes
02. Baby What's Wrong
03. Ain't Got No
04. Hear My Train a Coming
05. I Don't Live Today
06. Love & Happiness
ENCORE
07. Shimmy She Wobble>Station blues>Preachin Blues


*Cody on guitar and Carter Mclean on drums
#Cody on guitar and Cedric Burnside on drums
% Jamie Mclean on guitar

nma2007-04-27d1t01.flac:64c7df12888ed3f095fabe1f3faced29
nma2007-04-27d1t02.flac:17ad58a0c13554925db9df471175d7fb
nma2007-04-27d1t03.flac:4acaa4f31f689254b9e823c2912bf52d
nma2007-04-27d1t04.flac:938be500e155059a20a8dd01aca7fefc
nma2007-04-27d1t05.flac:104ab698c08153ec0ca9c667763b0bcb
nma2007-04-27d1t06.flac:f45381391a140903d242cc001257c40b
nma2007-04-27d1t07.flac:60351f20e7f9843674a674dce5d00c8f
nma2007-04-27d1t08.flac:f3695361f937f2ec28780e84b68485a3
nma2007-04-27d1t09.flac:3915d560f4a60bde7f16b8d61a83e469
nma2007-04-27d1t10.flac:5cd0db2c31400ca281da80f0ea758882
nma2007-04-27d1t11.flac:98c421f1b4f3269b908deda8638d9672
nma2007-04-27d2t01.flac:0419d843e1448a9936dd943efb78ec79
nma2007-04-27d2t02.flac:8d57c1fbcbb2b1fccfa51ef4c1d1b277
nma2007-04-27d2t03.flac:3cb9e3c8e9640b076ccdd460da643d36
nma2007-04-27d2t04.flac:afd504cf75aa8ba8453959e07e51d296
nma2007-04-27d2t05.flac:83b4481155ff82cd7f1704ea835277a1
nma2007-04-27d2t06.flac:41bbda59a3ae27f4320f9057db58a9bc
nma2007-04-27d2t07.flac:35c9f7318459a9b2ad99fa03f3242630
nma2007-04-27d2t08.flac:d4664adcfb189cce2620fb00a729e6fd
nma2007-04-27d2t09.flac:c86a60e4d20a4d9da57be50303d1b1ed
nma2007-04-27d2t10.flac:c56d458d1033a9c9f008a85d96c861aa
nma2007-04-27d2t11.flac:e3b6b6a87ff22cc9392e6e0559d51f40
nma2007-04-27d2t12.flac:863bb8def1499d61b9f3224087e85230
nma2007-04-27d3t01.flac:4ea9668fdef885a34c4212bb8c94b86e
nma2007-04-27d3t02.flac:d5532015b3318de708a3252ee19a4b72
nma2007-04-27d3t03.flac:5e961ae40efb285a2763440bf8718f5d
nma2007-04-27d3t04.flac:c09c0eb252da00017c2e9fd668ec7a2a
nma2007-04-27d3t05.flac:ebbd3cefeb59bd96a0a44b7d7aa663fa
nma2007-04-27d3t06.flac:d687990020b5ae6f1821a1f1f1557e70
nma2007-04-27d3t07.flac:0b012d94851a10bb4759ea98a7af54ad

length expanded size cdr WAVE problems filename
5:46.15 61069724 --- -- ----- nma2007-04-27d1t01.wav
6:05.55 64515404 --- -- ----- nma2007-04-27d1t02.wav
5:44.70 60846284 --- -- ----- nma2007-04-27d1t03.wav
4:27.58 47235260 --- -- ----- nma2007-04-27d1t04.wav
6:52.10 72700364 --- -- ----- nma2007-04-27d1t05.wav
3:43.23 39391340 --- -- ----- nma2007-04-27d1t06.wav
4:37.15 48898124 --- -- ----- nma2007-04-27d1t07.wav
4:02.53 42813500 --- -- ----- nma2007-04-27d1t08.wav
4:14.71 44972636 --- -- ----- nma2007-04-27d1t09.wav
7:59.17 84535628 --- -- ----- nma2007-04-27d1t10.wav
7:21.03 77799500 --- -- ----- nma2007-04-27d1t11.wav
5:19.47 56382188 --- -- ----- nma2007-04-27d2t01.wav
2:54.12 30721868 --- -- ----- nma2007-04-27d2t02.wav
4:56.71 52381436 --- -- ----- nma2007-04-27d2t03.wav
3:57.46 41915036 --- -- ----- nma2007-04-27d2t04.wav
4:30.26 47689196 --- -- ----- nma2007-04-27d2t05.wav
5:10.72 54853388 --- -- ----- nma2007-04-27d2t06.wav
7:26.41 78770876 --- -- ----- nma2007-04-27d2t07.wav
5:55.18 62664380 --- -- ----- nma2007-04-27d2t08.wav
10:42.01 113251196 --- -- ----- nma2007-04-27d2t09.wav
3:56.65 41783324 --- -- ----- nma2007-04-27d2t10.wav
5:21.51 56744396 --- -- ----- nma2007-04-27d2t11.wav
4:38.49 49154492 --- -- ----- nma2007-04-27d2t12.wav
5:43.60 60646364 --- -- ----- nma2007-04-27d3t01.wav
4:44.26 50158796 --- -- ----- nma2007-04-27d3t02.wav
3:02.60 32245964 --- -- ----- nma2007-04-27d3t03.wav
6:33.66 69480476 --- -- ----- nma2007-04-27d3t04.wav
4:21.25 46099244 --- -- ----- nma2007-04-27d3t05.wav
4:04.31 43114556 --- -- ----- nma2007-04-27d3t06.wav
10:02.03 106199900 --- -- ----- nma2007-04-27d3t07.wav
164:18.35 1739034840 B (totals for 30 files, 1.0000 overall compression ratio)
Visibleno (dead)
TypeNorth Mississippi Allstars
Last seederLast activity 187 days, 22:21:23 ago
Size996.29 MB (1044684727 Bytes)
Added2007-04-28 19:10:57
Views0
Hits1061
Snatched1111 times
Upped byjkbyram
Num files
[See full list]
33 files
Peers
[See full list]
0 seeders, 0 leechers = 0 peers total

Add a comment

(orphaned) 0000-00-00 00:00:00
Important news from bt.etree.org!

Begining on March 17 2006, all torrents seeded at bt.etree must
include 1) checksum files (.md5, .ffp) that include a checksum for
every lossless audio file in the fileset, and 2) a copy of those
checksums pasted into the torrent description, so everyone can see
them without downloading the fileset.

If you seed a torrent without this information, it will be deleted.
We're telling you this now, so you'll know.

Of course, if there is a problem, we'll try to contact you and help
to fix it. If you don't have a valid e-mail address on your
db.etree.org account, please take a moment to add one. If we can't
contact you, we can't help you, and it be very frustrating for
everyone. Seeders who don't have valid e-mail addresses may find
their logins disabled.

This message will appear on all torrents seeded to bt.etree until
everyone has gotten the message. If your torrent has checksum files
and lists them in the description, thank you! If not, please take a
moment to edit the torrent description to include them. If you have
to add the checksum files from scratch, you'll have to pull this
torrent and start over. Sorry about that.

For help generating checksums, please visit
http://wiki.etree.org or
http://forums.etree.org/viewtopic.php?t=7025. If you have specific
questions, please post them at http://forums.etree.org and someone
will help you ASAP. Please do NOT e-mail us directly.

Thanks, and happy downloading.
pimphand 2007-04-28 19:57:57
Thanks for this...looking forward to some crazy collaborations to be upped from Jazzfest since I can't be there.
goodolcapn 2007-04-28 20:28:56
That's a long set. Thanks for the post.
vanark 2007-04-29 00:07:12
As always, thanks, Kevin!!!
awaker 2007-04-29 09:40:54
sound great!!!
dugtee61 2007-05-05 10:18:28
Thanks a lot! As always, great sound!
Doug
dogstar51 2007-05-07 21:28:46
Thanx aplenty for the great sounding show-any chance you're gonna post the 2nd show, 4/28? Completely different setlist and feel, feat. some of the Lee Boys, heavy on de fonk. I know I saw one intrepid taper there! Thanx agin !
vanark 2007-05-08 20:24:15
jkbyram didn't record the 4/28 show, but benzster did. :-) And the recording should be on its way to me for tracking in the next few days.
rkp0320 2007-05-14 20:09:25
does anyone have the 5/5/07 Riverboat show? it was a killer show but i didnt see any taping devices.
macfawlty 2007-08-01 17:26:09
Just saw them at FloydFest and had to get some more. This show has awesome sound quality and is a long 3 CD set packed full of lots of good shit. It's a great show.

Add a comment


http://etree.org : http://db.etree.org : http://forums.etree.org : http://wiki.etree.org : Legal : RSS Feed

Contents designed & maintained by the etree.org volunteers
1998-2014, etree.org, except where noted. All Rights Reserved.
Read our terms of service and privacy guidelines