bt.etree.org
etree.org Community Bittorrent Tracker
ArtistOther
ShowDr. John as the Night Tripper 2007-05-05 CAC New Orleans, LA
Report this as
non-Trade-Friendly
Email us
Torrentdrjohn2007-05-05.flac.torrent (click to download)
Downloads asdrjohn2007-05-05.flac
Info hashd551c44fc9af9c9415812e3e63aaf033e4c73234
db link | Show | Source
DescriptionDr. John the Night Tripper
2007-05-05
Contemporary Arts Center
New Orleans, LA

Source: Akg c460b/ck63(DIN)>D Mod UA-5>H120
Location: DFC, Directly FOB @ 9' high
Transfer: H120>USB>Wavelab>cdwave>FLAC
Taper: jkbyram

Show was 1 set

01. Intro
02. Which Way
03.
04.
05.
06.
07.
08.
09.
10.
11. Guilded Splinters
12.


Notes:
-Soul rebels brass band and Govt Mule also played

-any help with the setlist would be appreciated

drjohn2007-05-05d1t01.flac:2fb9fbfee5437ffc9607d20d19cf3ae2
drjohn2007-05-05d1t02.flac:2c53655953c90454509bed75c5f6d99c
drjohn2007-05-05d1t03.flac:19d58ab0e07ed2c872943d19e740b74a
drjohn2007-05-05d1t04.flac:abc23def8bda4253369f2d0829de7e57
drjohn2007-05-05d1t05.flac:1dda77b73104e0da11170e5bafbf892f
drjohn2007-05-05d1t06.flac:9e6e513a61e7254366fec5db24ae2148
drjohn2007-05-05d1t07.flac:c8730cc8695d0b131adda08ca401d530
drjohn2007-05-05d1t08.flac:91382b43006524d53166da9234ff9595
drjohn2007-05-05d1t09.flac:57b004f3a260b0d01df7f102d72d7339
drjohn2007-05-05d1t10.flac:c3e4d9c0d9eb1d177627362f4217f3e7
drjohn2007-05-05d1t11.flac:78f3ea66fd4913539d5430c9dead6779
drjohn2007-05-05d1t12.flac:d65852475a4f800a1c8c4e0f654b6c41

length expanded size cdr WAVE problems filename
3:58.17 42023228 --- -- ----- drjohn2007-05-05d1t01.wav
5:54.74 62619692 --- -- ----- drjohn2007-05-05d1t02.wav
7:00.36 74172716 --- -- ----- drjohn2007-05-05d1t03.wav
9:20.02 98788748 --- -- ----- drjohn2007-05-05d1t04.wav
9:55.63 105106220 --- -- ----- drjohn2007-05-05d1t05.wav
4:41.63 49716620 --- -- ----- drjohn2007-05-05d1t06.wav
12:13.52 129423548 --- -- ----- drjohn2007-05-05d1t07.wav
6:46.43 71719580 --- -- ----- drjohn2007-05-05d1t08.wav
7:34.37 80172668 --- -- ----- drjohn2007-05-05d1t09.wav
7:52.20 83307884 --- -- ----- drjohn2007-05-05d1t10.wav
10:24.26 110134796 --- -- ----- drjohn2007-05-05d1t11.wav
8:20.23 88254140 --- -- ----- drjohn2007-05-05d1t12.wav
94:03.06 995439840 B (totals for 12 files, 1.0000 overall compression ratio)
TypeOther
Last seederLast activity 27:33 ago
Size526.83 MB (552416461 Bytes)
Added2007-05-07 17:10:24
Views0
Hits1643
Snatched1982 times
Upped byjkbyram
Num files
[See full list]
15 files
Peers
[See full list]
0 seeders, 1 leecher = 1 peer total

Add a comment

<< Prev      Next >>
1 - 20 | 21 - 28

RBayers 2007-05-17 18:39:19
does anyone have Garaj A Medeski from last year?
valleybird 2007-05-17 18:51:01
Thank you, thank you, thank you...

This show is far out. They sound clearly like in trance, whatever it was caused from, and at the end of the concert, Mac spoke out some voodoo prayer, which has nothing to do with entertainment from my sight. If somebody who was there could name the horn section, I didn't caprure all of the names. saw additions on the setlist, but I will enclose my updated too:

01 Introduction/When The Saints go Marching in Instrumental
02 Witchy Red
03 Shadows
04 Craney Crow
05 Danse Fambeaux
06 Mama Roux
07 Medley: Litanie des Saints/I Been Hoodood/Zu Zu Mamou
08 Danse Kalinda ba Boom
09 I like Ki Yoka
10 Mos' Scocious
11 Walk On Guilded Splinters
12 Voodoo Prayer/Wade IV: Aftermath/Outro/Introduction
johnnyonthespot 2007-05-19 13:28:22
Thanks a bunch! Listened to this while kicking it by the campfire. Perfect mood.
JohnGris 2007-05-28 02:56:18
Whoa!!!

I haven't listened to this show yet, but I just saw the setlist and it's off the chain. I've never heard of him doing a setlist like that since very beginning of his carrer, where the whole thing is Gris Gris / voodoo music. There's some seriously rare shit there. I can't wait to hear this...thanks!!!

-JohnGris
nealtir 2007-08-01 10:06:22
Thank you thank you thank you for upping this one.

I can't believe I missed this show. I've been waiting for ever to hear the Dr. do a Night Tripper set and I couldn't make it because I had to work. If I had known the setlist would be anything like this, I would have quit my job just to see it.
jkbyram 2008-02-21 17:10:42
i cant believe this is still going
doug819 2008-12-05 23:25:46
Thanks for keeping this torrent going!!
Luckymudster 2010-07-23 01:25:11
This looks like such an amazing set. Thank you to the taper, uploader and seeder, especially this late in the game.

1 - 20 | 21 - 28
<< Prev      Next >>

Add a comment


http://etree.org : http://db.etree.org : http://forums.etree.org : http://wiki.etree.org : Legal : RSS Feed

Contents designed & maintained by the etree.org volunteers
1998-2014, etree.org, except where noted. All Rights Reserved.
Read our terms of service and privacy guidelines