bt.etree.org
etree.org Community Bittorrent Tracker
ArtistWilco
ShowWilco 2/27/08 930 Club Washington DC mK4 248 mme 16-bit
Report this as
non-Trade-Friendly
Email us
Torrentwilco20080227.mk4.flac16.torrent (click to download)
Downloads aswilco20080227.mk4.flac16
Info hashcbf61b8919a5f95c69a3b4bb2f16997f104b865b
db linkhttp://db.etree.org/shn/91664 | Show | Source
DescriptionYou've seen the dpa rest, now try the SCHOEPS BEST!

Wilco
02/27/2008
9:30 Club Washington DC

****16 Bit 44.1k****

Source: Schoeps MK4(7'stand, DIN, TS, LOC)>KC5>CMC6>
Oade M248>Apogee MiniME>Tascam HD-P2(24bit/96k)

Processing: CF>HP Vista Laptop>Wavelab 5.0(tracking/fades/Resample/UV22HR Dither)>
Flac 1.1.2(Level 8, Align on Sector Boundaries)>Tag & Rename 3.4.6(Tags)

Recorded and Processed by Innis Nelson innisn@gmail.com

CD1
01. Sunken Treasure
02. Remember The Mountain Bed
03. Company In My Back
04. You Are My Face
05. Side With the seeds
06. She's A Jar
07. Shot In The Arm
08. Neverevergonna
09. Handshake Drugs
10. Pot Kettle Black
11. Roses Bloom Again
12. Impossible Germany
13. It's Just That Simple
CD2
14. Someday Soon
15. Box Full Of Letters
16. I'm Always In Love
17. Pieholden Suite
18. Jesus etc
19. Hate It Here
20. Walken
21. I'm The Man Who Loves Uou
22. Hummingbird
23. On And On
24. Crowd
25. Via Chicago
26. California Stars
27. Crowd
28. Casino Queen
29. I'm A Wheel
30. Monday

Flac Fingerprint:

wilco20080227d1_01_Sunken_Treasure.flac:1216717d5ea567eaf316375792634db4
wilco20080227d1_02_Remember_The_Mountain_Bed.flac:35adc4a3921e37bda6dc65c4a022e235
wilco20080227d1_03_Company_In_My_Back.flac:fac37cdefa270413f36a2a86896fff27
wilco20080227d1_04_You_Are_My_Face.flac:23d7c334316402812761d14538513bad
wilco20080227d1_05_Side_With_the_seeds.flac:4eaa9daab6372c5b923b4f0a959efda6
wilco20080227d1_06_Shes_A_Jar.flac:497538011531889fb0393eb02d0da849
wilco20080227d1_07_Shot_In_The_Arm.flac:1d915729423d28793aa7a065b2241210
wilco20080227d1_08_Neverevergonna.flac:8e43c64468a3a225f4e92d830d44891e
wilco20080227d1_09_Handshake_Drugs.flac:dd8d83644fd8f9b71eeebbc3269e8aca
wilco20080227d1_10_Pot_Kettle_Black.flac:59641ccb58f2872abd24dfe269a76cf8
wilco20080227d1_11_Roses_Bloom_Again.flac:2d9d1322932f0d88df9c54454cb77636
wilco20080227d1_12_Impossible_Germany.flac:e06695f2060c3e52147ecf4c131a7d3f
wilco20080227d1_13_Its_Just_That_Simple.flac:cd4bf82d92508fed9283a56fa8820edf
wilco20080227d2_01_Someday_Soon.flac:5c0e443163db238d79fde8b827fa9321
wilco20080227d2_02_Box_Full_Of_Letters.flac:b5f5a8299b7a9ff8f76f30e633053954
wilco20080227d2_03_Im_Always_In_Love.flac:9de8888a5b88b43dda6955f297ba68d0
wilco20080227d2_04_Pieholden_Suite.flac:3e938599743f64816f1852ef59198657
wilco20080227d2_05_Jesus_etc.flac:05856a26e51161fc982722663c866680
wilco20080227d2_06_Hate_It_Here.flac:5c448d93a5e03e1d22b885beaafabb9c
wilco20080227d2_07_Walken.flac:11b1bbe0a68213d696d40eaeddc876ac
wilco20080227d2_08_Im_The_Man_Who_Loves_You.flac:c66afdb18ebbd85613bb3b9a5bf83c82
wilco20080227d2_09_Hummingbird.flac:c5e8ecfe7e2784817f4060cafed0fbd3
wilco20080227d2_10_On_And_On.flac:56ed18d089f52885abff9990ee5efbfb
wilco20080227d2_11_Crowd.flac:57973852cfafe283d2870af1b9c364dd
wilco20080227d2_12_Via_Chicago.flac:f002e096c9be75010cf043a1e46483c8
wilco20080227d2_13_California_Stars.flac:309f65bd11c46d45aa3be81087de68a5
wilco20080227d2_14_Crowd.flac:5418ba31250792d26bf81b2b93827559
wilco20080227d2_15_Casino_Queen.flac:2862453c52b1f21d5996910be8306d94
wilco20080227d2_16_Im_A_Wheel.flac:0b1a70b1fa052344f4bdb95d0c78b5f2
wilco20080227d2_17_Monday.flac:1feda7490ea3a90ecdf7f5e2cf173c3f

Shntool output:

G:\Music\FlacArchive\wilco20080227.mk4.flac16>shntool len *.wav
length expanded size cdr WAVE problems fmt ratio filename
shntool [len]: warning: cannot open non-existent file: [*.wav]
0:00.00 0 B 0.0000 (0 files)

G:\Music\FlacArchive\wilco20080227.mk4.flac16>shntool len *.flac
length expanded size cdr WAVE problems fmt ratio filename
7:45.05 82037804 B --- -- ---xx flac 0.4083 wilco20080227d1
_01_Sunken_Treasure.flac
6:53.56 72984956 B --- -- ---xx flac 0.4855 wilco20080227d1
_02_Remember_The_Mountain_Bed.flac
3:58.00 41983244 B --- -- ---xx flac 0.5559 wilco20080227d1
_03_Company_In_My_Back.flac
4:43.70 50085884 B --- -- ---xx flac 0.5507 wilco20080227d1
_04_You_Are_My_Face.flac
5:14.60 55530764 B --- -- ---xx flac 0.5335 wilco20080227d1
_05_Side_With_the_seeds.flac
4:34.57 48467708 B --- -- ---xx flac 0.5261 wilco20080227d1
_06_Shes_A_Jar.flac
5:45.29 60926252 B --- -- ---xx flac 0.5980 wilco20080227d1
_07_Shot_In_The_Arm.flac
5:43.61 60648716 B --- -- ---xx flac 0.5503 wilco20080227d1
_08_Neverevergonna.flac
6:13.40 65891324 B --- -- ---xx flac 0.5797 wilco20080227d1
_09_Handshake_Drugs.flac
4:40.18 49434380 B --- -- ---xx flac 0.5974 wilco20080227d1
_10_Pot_Kettle_Black.flac
5:24.54 57280652 B --- -- ---xx flac 0.4992 wilco20080227d1
_11_Roses_Bloom_Again.flac
6:12.47 65731388 B --- -- ---xx flac 0.5646 wilco20080227d1
_12_Impossible_Germany.flac
4:20.65 46016924 B --- -- ---xx flac 0.5410 wilco20080227d1
_13_Its_Just_That_Simple.flac
4:26.40 47016524 B --- -- ---xx flac 0.5362 wilco20080227d2
_01_Someday_Soon.flac
3:17.45 34856684 B --- -- ---xx flac 0.6363 wilco20080227d2
_02_Box_Full_Of_Letters.flac
4:33.62 48303068 B --- -- ---xx flac 0.6277 wilco20080227d2
_03_Im_Always_In_Love.flac
4:03.66 43020476 B --- -- ---xx flac 0.5110 wilco20080227d2
_04_Pieholden_Suite.flac
4:44.51 50217596 B --- -- ---xx flac 0.5064 wilco20080227d2
_05_Jesus_etc.flac
4:57.32 52466108 B --- -- ---xx flac 0.5914 wilco20080227d2
_06_Hate_It_Here.flac
4:36.13 48717020 B --- -- ---xx flac 0.6061 wilco20080227d2
_07_Walken.flac
4:33.24 48213692 B --- -- ---xx flac 0.6219 wilco20080227d2
_08_Im_The_Man_Who_Loves_You.flac
3:40.51 38927996 B --- -- ---xx flac 0.5566 wilco20080227d2
_09_Hummingbird.flac
4:23.14 46426172 B --- -- ---xx flac 0.5039 wilco20080227d2
_10_On_And_On.flac
4:28.72 47444588 B --- -- ---xx flac 0.5534 wilco20080227d2
_11_Crowd.flac
5:35.18 59136380 B --- -- ---xx flac 0.5251 wilco20080227d2
_12_Via_Chicago.flac
4:36.62 48832268 B --- -- ---xx flac 0.5899 wilco20080227d2
_13_California_Stars.flac
2:47.14 29491772 B --- -- ---xx flac 0.5789 wilco20080227d2
_14_Crowd.flac
3:20.66 35435276 B --- -- ---xx flac 0.6507 wilco20080227d2
_15_Casino_Queen.flac
2:33.51 27109196 B --- -- ---xx flac 0.6565 wilco20080227d2
_16_Im_A_Wheel.flac
4:52.08 51527660 B --- -- ---xx flac 0.6612 wilco20080227d2
_17_Monday.flac
143:03.51 1514162472 B 0.5560 (30 files)

G:\Music\FlacArchive\wilco20080227.mk4.flac16>

TypeWilco
Last seederLast activity 136 days, 07:14:14 ago
Size802.95 MB (841953698 Bytes)
Added2008-03-02 16:49:46
Views1
Hits1520
Snatched173 times
Upped bystsWook
Num files
[See full list]
32 files
Peers
[See full list]
0 seeders, 1 leecher = 1 peer total

Add a comment

(orphaned) 0000-00-00 00:00:00
Important news from bt.etree.org!

Begining on March 17 2006, all torrents seeded at bt.etree must
include 1) checksum files (.md5, .ffp) that include a checksum for
every lossless audio file in the fileset, and 2) a copy of those
checksums pasted into the torrent description, so everyone can see
them without downloading the fileset.

If you seed a torrent without this information, it will be deleted.
We're telling you this now, so you'll know.

Of course, if there is a problem, we'll try to contact you and help
to fix it. If you don't have a valid e-mail address on your
db.etree.org account, please take a moment to add one. If we can't
contact you, we can't help you, and it be very frustrating for
everyone. Seeders who don't have valid e-mail addresses may find
their logins disabled.

This message will appear on all torrents seeded to bt.etree until
everyone has gotten the message. If your torrent has checksum files
and lists them in the description, thank you! If not, please take a
moment to edit the torrent description to include them. If you have
to add the checksum files from scratch, you'll have to pull this
torrent and start over. Sorry about that.

For help generating checksums, please visit
http://wiki.etree.org or
http://forums.etree.org/viewtopic.php?t=7025. If you have specific
questions, please post them at http://forums.etree.org and someone
will help you ASAP. Please do NOT e-mail us directly.

Thanks, and happy downloading.
doubled 2008-03-03 10:05:57
any chance you ran the night before also

ive only seen one source from that night

keep me posted

dave
stsWook 2008-03-03 14:20:17
I didn't... I had my bag in car, but we got there too late. Walked in in the middle of first song!
cbd 2008-03-03 17:25:49
only 1 source has been posted for 2/26 (pete's mbho's) but there were a coupel of other tapers including John P's 4022's
stsWook 2008-03-04 11:52:59
I found another copy on an ftp server. I'm going to ask the taper if he minds if resample/dither and if I BT it or not. Here's the txt file:

Wilco
February 26, 2008
930 Club
Washington DC

*** THIS IS A 24-BIT FILESET NOT INTENDED FOR AUDIO CD ***

SOURCE: schoeps mk4v (ORTF) > vms02ib > busman t-mod edirol r4 (24/96)
PROCESSING: soundforge 8.0 (tracking, fades) > flac 1.2.0a

01 intro
02 (Was I) In Your Dreams
03 Blood Of The Lamb
04 You Are My Face
05 Pot Kettle Black
06 A Shot In The Arm
07 Side With The Seeds
08 Pieholden Suite
09 Impossible Germany
10 Sky Blue Sky
11 Handshake Drugs
12 Too Far Apart
13 Summer Teeth
14 Jesus, Etc
15 Walken
16 Im The Man Who Loves You
17 Hummingbird
18 A Magazine Called Sunset
19 I Got You (At The End Of The Century)
20 Monday
21 Outtamind (Outta Sight)
22 pre-encore crowd
23 encore intro
24 Hate It Here
25 Can't Stand It
26 The Thanks I Get
27 Just A Kid
28 pre-encore crowd
29 intro
30 Shouldn't Be Ashamed
31 War On War
32 Heavy Metal Drummer
33 Late Greats

length expanded size cdr WAVE problems fmt ratio filename
0:34.900 20102444 B cxx -- ---xx flac 0.5692 wilco2008-02-26_mk4v_t01.flac
2:59.500 103392044 B cxx -- ---xx flac 0.5538 wilco2008-02-26_mk4v_t02.flac
4:29.700 155347244 B cxx -- ---xx flac 0.5587 wilco2008-02-26_mk4v_t03.flac
5:16.700 182419244 B cxx -- ---xx flac 0.5764 wilco2008-02-26_mk4v_t04.flac
4:25.300 152812844 B cxx -- ---xx flac 0.6117 wilco2008-02-26_mk4v_t05.flac
4:49.700 166867244 B cxx -- ---xx flac 0.6267 wilco2008-02-26_mk4v_t06.flac
5:11.900 179654444 B cxx -- ---xx flac 0.5834 wilco2008-02-26_mk4v_t07.flac
4:39.700 161107244 B cxx -- ---xx flac 0.5658 wilco2008-02-26_mk4v_t08.flac
6:33.500 226656044 B cxx -- ---xx flac 0.5881 wilco2008-02-26_mk4v_t09.flac
5:06.200 176371244 B cxx -- ---xx flac 0.5464 wilco2008-02-26_mk4v_t10.flac
6:06.500 211104044 B cxx -- ---xx flac 0.5995 wilco2008-02-26_mk4v_t11.flac
4:58.300 171820844 B cxx -- ---xx flac 0.6005 wilco2008-02-26_mk4v_t12.flac
4:18.600 148953644 B cxx -- ---xx flac 0.5912 wilco2008-02-26_mk4v_t13.flac
4:30.200 155635244 B cxx -- ---xx flac 0.5687 wilco2008-02-26_mk4v_t14.flac
4:33.000 157248044 B cxx -- ---xx flac 0.6070 wilco2008-02-26_mk4v_t15.flac
4:14.800 146764844 B cxx -- ---xx flac 0.6242 wilco2008-02-26_mk4v_t16.flac
3:44.000 129024044 B cxx -- ---xx flac 0.5812 wilco2008-02-26_mk4v_t17.flac
2:48.400 96998444 B cxx -- ---xx flac 0.6004 wilco2008-02-26_mk4v_t18.flac
6:08.300 212140844 B cxx -- ---xx flac 0.6095 wilco2008-02-26_mk4v_t19.flac
4:07.400 142502444 B cxx -- ---xx flac 0.6447 wilco2008-02-26_mk4v_t20.flac
2:39.400 91814444 B cxx -- ---xx flac 0.6410 wilco2008-02-26_mk4v_t21.flac
3:25.600 118425644 B cxx -- ---xx flac 0.6022 wilco2008-02-26_mk4v_t22.flac
0:42.400 24422444 B cxx -- ---xx flac 0.5525 wilco2008-02-26_mk4v_t23.flac
5:10.100 178617644 B cxx -- ---xx flac 0.5989 wilco2008-02-26_mk4v_t24.flac
5:37.800 194572844 B cxx -- ---xx flac 0.6149 wilco2008-02-26_mk4v_t25.flac
4:51.600 167961644 B cxx -- ---xx flac 0.6106 wilco2008-02-26_mk4v_t26.flac
2:43.500 94176044 B cxx -- ---xx flac 0.6302 wilco2008-02-26_mk4v_t27.flac
2:51.000 98496044 B cxx -- ---xx flac 0.6137 wilco2008-02-26_mk4v_t28.flac
0:07.300 4204844 B cxx -- ---xx flac 0.5655 wilco2008-02-26_mk4v_t29.flac
3:11.300 110188844 B cxx -- ---xx flac 0.6137 wilco2008-02-26_mk4v_t30.flac
4:07.500 142560044 B cxx -- ---xx flac 0.6044 wilco2008-02-26_mk4v_t31.flac
3:59.600 138009644 B cxx -- ---xx flac 0.6132 wilco2008-02-26_mk4v_t32.flac
3:04.600 106329644 B cxx -- ---xx flac 0.6158 wilco2008-02-26_mk4v_t33.flac
132:08.300 4566702252 B 0.5980 (33 files)
mustang 2008-03-05 08:19:05
I keep gettiong error message when going from FLac to Wav and it seems there are bits missing in songs.... Anyone else?
stsWook 2008-03-05 11:45:45
Mustang, I do not see that on my source files. Are you sure you know how to bt? Has anyone else seen this problem? If so, I'll pull it and test again, but everything seems fine on my end...

did you check using the flac fingerprint or "test" fucnctionality of flac.exe?
stsWook 2008-03-05 15:30:21
mustang,

I just had a friend who dl'd it test it and he said it's fine. You know you have to wait until the whole torrent is "finished" to convert/listen to right?
GoStateNate 2008-03-25 01:48:43
I also got an error message when I tried to open the files. I'm using Xact for Mac. Tried to decode the FLAC into wav and got an error message every time, even when I told it to ignore errors. I also tried to fingerprint the files to see if that would fix it and that failed as well. The whole torrent finished before I opened the file. Very odd that mustang had the same problem with the same software and files. If anyone has an answer I'd love to hear it.

Add a comment


http://etree.org : http://db.etree.org : http://forums.etree.org : http://wiki.etree.org : Legal : RSS Feed

Contents designed & maintained by the etree.org volunteers
1998-2014, etree.org, except where noted. All Rights Reserved.
Read our terms of service and privacy guidelines