bt.etree.org
etree.org Community Bittorrent Tracker
ArtistOther
ShowMan Man 2008-04-17 Madison WI - High Noon Saloon - Matrix - FLAC16
Report this as
non-Trade-Friendly
Email us
TorrentManMan2008-04-17-mtx-flac16.torrent (click to download)
Downloads asManMan2008-04-17-mtx-flac16
Info hash95af3a3309004509690d5123334f0e32d4efd511
DescriptionMan Man
Thursday, April 17, 2008
High Noon Saloon
Madison WI

Yeasayer opened for Man Man

Recording: Neumann KM140's (ORTF pair clamped to balcony railing FOB right side) > Beyer MV100 > Zoom H2 @48KHz/24-bit
+ Allen & Heath GL3300 SBD > Sony PCM-M1 > DAT @48KHz

Transfer:
DAT > Sony PCM-M1 > S/Pdif > Audiomedia III PCI card > Powermac G3/266 > Protools 4.1.1 > AIFF > Powermac G4 MDD/ Dual 1.42
WAV > Zoom H2 > USB> Powermac G4

Mix:
16-bit SBD AIFF + 24-bit audience WAV > Audacity 1.2.6
SBD AIFF > Change Speed plugin at .012% to match 24-bit audience WAV, files lined up by ear/eye, gain of SBD set to -3dB, gain of AUD set to +3, then the mix was output as WAV @44KHz/16-bit with triangle dither > AIFF > Audacity 1.2.6 (tracking in 1/75 second increments) > AIFF's > xACT 1.62 (flac level 8) > FLAC


Mixed by Man Man's engineer- Dylan
HNS house engineer - Gavin

http://www.high-noon.com
http://www.myspace.com/highnoonsaloon
http://www.myspace.com/wearemanman

Setlist (THANKS TOBONE!):
01. intro
02. Mister Jung Stuffed
03. Banana Ghost
04. Hurly Burly
05. Easy Eats Or Dirty Doctor Galapagos
06. Zebra
07. Big Trouble
08. Tunneling Through The Guy
09. The Ballad Of Butter Beans
10. Top Drawer
11. Black Mission Goggles
12. Harpoon Fever(Queequeg's Playhouse)
13. Gold Teeth
14. encore break - audience
15. unidentified instrumental
16. Engwish Bwudd
17. Young Einstein On The Beach
18. Doo Right
19. El Azteca
20. applause

SHNTOOL:
length expanded size cdr WAVE problems fmt ratio filename
0:20.15 3563324 B --- -- ---xx ManMan2008-04-17-mtx-t01.flac
2:58.70 31563884 B --- -- ---xx ManMan2008-04-17-mtx-t02.flac
3:24.50 36103244 B --- -- ---xx ManMan2008-04-17-mtx-t03.flac
3:35.53 38050700 B --- -- ---xx ManMan2008-04-17-mtx-t04.flac
2:24.49 25516892 B --- -- ---xx ManMan2008-04-17-mtx-t05.flac
4:39.22 49267388 B --- -- ---xx ManMan2008-04-17-mtx-t06.flac
5:18.56 56226956 B --- -- ---xx ManMan2008-04-17-mtx-t07.flac
7:16.46 77018636 B --- -- ---xx ManMan2008-04-17-mtx-t08.flac
5:13.30 55283804 B --- -- ---xx ManMan2008-04-17-mtx-t09.flac
3:09.56 33471356 B --- -- ---xx ManMan2008-04-17-mtx-t10.flac
6:19.70 67020284 B --- -- ---xx ManMan2008-04-17-mtx-t11.flac
3:06.41 32906876 B --- -- ---xx ManMan2008-04-17-mtx-t12.flac
7:09.01 75677996 B --- -- ---xx ManMan2008-04-17-mtx-t13.flac
2:03.46 21805436 B --- -- ---xx ManMan2008-04-17-mtx-t14.flac
2:51.12 30192668 B --- -- ---xx ManMan2008-04-17-mtx-t15.flac
3:31.41 37316876 B --- -- ---xx ManMan2008-04-17-mtx-t16.flac
1:11.69 12686732 B --- -- ---xx ManMan2008-04-17-mtx-t17.flac
1:44.13 18376220 B --- -- ---xx ManMan2008-04-17-mtx-t18.flac
2:38.53 27995900 B --- -- ---xx ManMan2008-04-17-mtx-t19.flac
4:03.74 43039292 B --- -- ---xx ManMan2008-04-17-mtx-t20.flac
73:02.42 773084464 B 0.5206 (20 files)

-=-=-=-=-=-=-=-=-=-=-=-=-=-=-=-=-=-=-=-=-=-=-=-=-
Soundscape Preservation Society Founded 1991
http://www.iamtypingwithonefinger.com/SPS.html
-=-=-=-=-=-=-=-=-=-=-=-=-=-=-=-=-=-=-=-=-=-=-=-=-
ChecksumsManMan2008-04-17-mtx-t01.flac:cd12d62f3e1b148b9269494f84506737
ManMan2008-04-17-mtx-t02.flac:0e680c6eb6c71b90d2339624843feac7
ManMan2008-04-17-mtx-t03.flac:25ccda2531473966f2fe480ce37bd95b
ManMan2008-04-17-mtx-t04.flac:c8ceb895e5c98bcaba919dbff5a9b526
ManMan2008-04-17-mtx-t05.flac:2735d7fcf2bbf6720a0b43e2d8245d24
ManMan2008-04-17-mtx-t06.flac:cb67dde28d2d9eafeea92543f7a7d480
ManMan2008-04-17-mtx-t07.flac:3625a898f7709fe4d3248bb017703909
ManMan2008-04-17-mtx-t08.flac:0ac3be7ec3a9aa93f8827815e4665992
ManMan2008-04-17-mtx-t09.flac:a3aba9986a72f8082126d3024f7d6ec8
ManMan2008-04-17-mtx-t10.flac:256ca34b9dd3ff341a5ea508a2a4a5c7
ManMan2008-04-17-mtx-t11.flac:9dabcd475fa8e73d02a020fe7b820ad3
ManMan2008-04-17-mtx-t12.flac:794fce9e973bfeaf52ad53550aed0b98
ManMan2008-04-17-mtx-t13.flac:848ed9640c4d96ada3f50ed8bf452886
ManMan2008-04-17-mtx-t14.flac:649a956b65bf849761702ac7ad594206
ManMan2008-04-17-mtx-t15.flac:ab3d59a90f52be38752929e1a03c85e3
ManMan2008-04-17-mtx-t16.flac:b63a17bac716303fbbb6f9207bc2634b
ManMan2008-04-17-mtx-t17.flac:52c638196a03464c9a6509656e3590ea
ManMan2008-04-17-mtx-t18.flac:3b76192ad7abf8ed78922d11db35b97b
ManMan2008-04-17-mtx-t19.flac:421dfd049bf516cd1148ef5862bc4ab1
ManMan2008-04-17-mtx-t20.flac:9dd6ddc897e602b3eb7baf22bae30493
e4e6a7132d53869578c18d7b6cb523ad *ManMan2008-04-17-mtx-t01.flac
97c2d1e55289d7d965725c43677ea77f *ManMan2008-04-17-mtx-t02.flac
395a1cb5df7c125a9db5c81f7c29528e *ManMan2008-04-17-mtx-t03.flac
a9fbd905263991665e805c2f498614cb *ManMan2008-04-17-mtx-t04.flac
a791f2fcaa4dd2e4fd086674881aa247 *ManMan2008-04-17-mtx-t05.flac
109974ea849a79993a558361e42427c5 *ManMan2008-04-17-mtx-t06.flac
c238a2f2d267aa7cfe0a7aa1739ee7a8 *ManMan2008-04-17-mtx-t07.flac
b634fbc3e9d0b8c27670b62d9c65e3bc *ManMan2008-04-17-mtx-t08.flac
2e18cb99fbc088a7955e48f1aa585847 *ManMan2008-04-17-mtx-t09.flac
45e68c4fe95f70a6a564232797bed355 *ManMan2008-04-17-mtx-t10.flac
d38754b07f0340d314bb31747d760ef8 *ManMan2008-04-17-mtx-t11.flac
058ef0f5ef5ca961884e538ec37421dc *ManMan2008-04-17-mtx-t12.flac
88c21ce0d5af77833d0e442671ed7ef0 *ManMan2008-04-17-mtx-t13.flac
f9187b7af488b06c7df32e8d8ceb17ad *ManMan2008-04-17-mtx-t14.flac
5abc89f41e614e3491bbfd1ca0986784 *ManMan2008-04-17-mtx-t15.flac
1cea20f9f5ffa5658a98c387e73738e5 *ManMan2008-04-17-mtx-t16.flac
46d1e4f128c80ab4ceb01a4783ccc483 *ManMan2008-04-17-mtx-t17.flac
8d8203b1a52a4fcb34e088d3d803295d *ManMan2008-04-17-mtx-t18.flac
98eaff1dca22b6510309202a96b9b895 *ManMan2008-04-17-mtx-t19.flac
bec5ec541541ddfcc0f5f007972ecf8b *ManMan2008-04-17-mtx-t20.flac
TypeOther
Last seederLast activity 47:13 ago
Size385.32 MB (404041662 Bytes)
Added2008-05-23 03:14:40
Views0
Hits1807
Snatched142 times
Upped bymorst
Num files
[See full list]
28 files
Peers
[See full list]
0 seeders, 1 leecher = 1 peer total

Add a comment

shacklyn75 2008-05-24 10:37:03
thanks so much for this! amazing!
if you've never heard these guys, imagine Capt. Beefheart and Tom Waits brawling in a Bowery alley while the Flo & Eddie lineup of Zappa's band looks on.

this is some advanced insanity. check it out if you dare!
get the album "Six Demon Bag"...
rhinowing 2008-05-25 02:24:00
THANKS! these guys are fucking crazy live. Six Demon Bag and Rabbit Habits are both excellent albums if you're unacquainted.
RBayers 2008-05-25 10:30:47
yeah, sometimes they remind me of some of the crazy things i've heard in some of Mike Dillon's bands..
crazy gypsy circus type stuff.. percussive based
petemargowskins 2008-05-27 21:43:31
AWESOME!! thank you so much, possibly the best show i've seen this year. i like shacklyn's description--not to mention, honus honus looks like he could BE an unholy beefheart/zappa love child.

Add a comment


http://etree.org : http://db.etree.org : http://forums.etree.org : http://wiki.etree.org : Legal : RSS Feed

Contents designed & maintained by the etree.org volunteers
1998-2014, etree.org, except where noted. All Rights Reserved.
Read our terms of service and privacy guidelines