bt.etree.org
etree.org Community Bittorrent Tracker
ArtistUmphrey's McGee
ShowUmphrey's McGee Mountain Jam Hunter Mountain, N.Y. 5/30/2008
Report this as
non-Trade-Friendly
Email us
Torrentumphreysmcgee2008-05-30.flac16.torrent (click to download)
Downloads asumphreysmcgee2008-05-30.flac16
Info hash0e13022a300df9066c92776e523eb399eb8fd2ab
db linkhttp://db.etree.org/shn/93083 | Show | Source
DescriptionUmphreys McGee
Mountain Jam
Hunter Mountain
Hunter, New York
5/30/2008

Source: Schoeps CCM4V'S(din)>Lunatec V2>Sound Devices 722 (24/48)
location: FOB/LOC/KFC/ZFC/AARP 12' High
DSP: Sound Devices 722>Sound Forge 7.0>CD Wave>flac(16)
Recorded By: The Z-Man
Seeded By: The Z-Man

Disc I

01 Intro
02 immigrant Song >
03 Hurt Bird Bath>
04 In the Kitchen
05 Rocker Part II
06 August1>
07 Hurt Bird Bath

Disc II

01 All in Time >
02 Wappy Sprayberry>
03 All in Time
04 Miss Tinkle's Overture

umphreysmcgee2008-05-30d01t01.flac:4ecb1419096086cc532ef22cc8058a3d
umphreysmcgee2008-05-30d01t02.flac:f8aa88faf9c8b0127791141c5c3c77e0
umphreysmcgee2008-05-30d01t03.flac:36874982fcd8b9b24abb6a84852a2e94
umphreysmcgee2008-05-30d01t04.flac:389f02a835bb883b0c2b0dbc3008e104
umphreysmcgee2008-05-30d01t05.flac:27c28a59b9c39b515ccf18bf7c88ab8e
umphreysmcgee2008-05-30d01t06.flac:8d53b3023168cbe1d0b68efeecc19370
umphreysmcgee2008-05-30d01t07.flac:67cb671de1f0c6d3e5cd62e159d913dc
umphreysmcgee2008-05-30d02t01.flac:09ba29fbb460a4080a2498481c4b8c4d
umphreysmcgee2008-05-30d02t02.flac:635671f318c7c284154250901a35d48a
umphreysmcgee2008-05-30d02t03.flac:a63f3325bd3b2bf5cf7a96947a62cd5a
umphreysmcgee2008-05-30d02t04.flac:93b47a30f800503346deb131b4e1b46c

length expanded size cdr WAVE problems filename
0:36.54 6477452 --- -- ---xx umphreysmcgee2008-05-30d01t01.flac
0:38.33 6780860 --- -- ---xx umphreysmcgee2008-05-30d01t02.flac
13:21.40 141390524 --- -- ---xx umphreysmcgee2008-05-30d01t03.flac
11:25.47 120944588 --- -- ---xx umphreysmcgee2008-05-30d01t04.flac
8:44.44 92537132 --- -- ---xx umphreysmcgee2008-05-30d01t05.flac
10:30.70 111296684 --- -- ---xx umphreysmcgee2008-05-30d01t06.flac
10:09.29 107495852 --- -- ---xx umphreysmcgee2008-05-30d01t07.flac
8:17.16 87708476 --- -- ---xx umphreysmcgee2008-05-30d02t01.flac
10:16.35 108744764 --- -- ---xx umphreysmcgee2008-05-30d02t02.flac
8:57.40 94820924 --- -- ---xx umphreysmcgee2008-05-30d02t03.flac
8:21.36 88461116 --- -- ---xx umphreysmcgee2008-05-30d02t04.flac
91:19.69 966658372 B (totals for 11 files, 0.4878 overall compression ratio)

Checksumsumphreysmcgee2008-05-30d01t01.flac:4ecb1419096086cc532ef22cc8058a3d
umphreysmcgee2008-05-30d01t02.flac:f8aa88faf9c8b0127791141c5c3c77e0
umphreysmcgee2008-05-30d01t03.flac:36874982fcd8b9b24abb6a84852a2e94
umphreysmcgee2008-05-30d01t04.flac:389f02a835bb883b0c2b0dbc3008e104
umphreysmcgee2008-05-30d01t05.flac:27c28a59b9c39b515ccf18bf7c88ab8e
umphreysmcgee2008-05-30d01t06.flac:8d53b3023168cbe1d0b68efeecc19370
umphreysmcgee2008-05-30d01t07.flac:67cb671de1f0c6d3e5cd62e159d913dc
umphreysmcgee2008-05-30d02t01.flac:09ba29fbb460a4080a2498481c4b8c4d
umphreysmcgee2008-05-30d02t02.flac:635671f318c7c284154250901a35d48a
umphreysmcgee2008-05-30d02t03.flac:a63f3325bd3b2bf5cf7a96947a62cd5a
umphreysmcgee2008-05-30d02t04.flac:93b47a30f800503346deb131b4e1b46c
TypeUmphrey's McGee
Last seederLast activity 35 days, 01:49:32 ago
Size449.71 MB (471555061 Bytes)
Added2008-06-17 20:42:22
Views0
Hits736
Snatched311 times
Upped byzmanatl
Num files12 files
File List
[Hide list]
filenamesizemd5
umphreysmcgee2008-05-30d01t01.flac2.23 MBN/A
umphreysmcgee2008-05-30d01t02.flac2.85 MBN/A
umphreysmcgee2008-05-30d01t03.flac66.06 MBN/A
umphreysmcgee2008-05-30d01t04.flac54.46 MBN/A
umphreysmcgee2008-05-30d01t05.flac43.36 MBN/A
umphreysmcgee2008-05-30d01t06.flac50.39 MBN/A
umphreysmcgee2008-05-30d01t07.flac51.74 MBN/A
umphreysmcgee2008-05-30d02t01.flac43.37 MBN/A
umphreysmcgee2008-05-30d02t02.flac51.63 MBN/A
umphreysmcgee2008-05-30d02t03.flac43.19 MBN/A
umphreysmcgee2008-05-30d02t04.flac40.44 MBN/A
umphreysmcgee2008-05-30textfile.txt2.3 kBN/A
Peers
[See full list]
0 seeders, 1 leecher = 1 peer total

Add a comment

zmanatl 2008-06-17 20:54:28
Still workin' to get these shows up! Here is the Umphrey's set. It was a solid 91 minutes of music. I was hoping Warren would make an appearance. Jake and Brendn did appear with Mule later on though. Alright Kathy N., here is the torrent you've been waitin' for!

Enjoy!

rustydudney 2008-06-17 22:15:03
Thanks so much z-man for all you've done to preserve the amazing memories from the best Mountain Jam yet. The UM set was a huge highlight for me seconded only by the amazingly talented Grace Potter. A Coupla sets I'm still kinda waiting for is the Pete Francis, BuzzUniverse, and the Felice brothers. Any chance you taped them? Thanks again for all you do
zmanatl 2008-06-17 23:01:27
Did all three of those. Just very little time with work, and of course, seeing more shows! Patience and I will get them up soon enough!
rustydudney 2008-06-17 23:22:03
Thanks z-man, I appreciate all the hard work. It was such an amazing festival, even better than last years. Your tape quality is superb and I hope you will be able to make Mountain Jam V. Do you ever tape Tea Leaf Green? They are another one of my favorite groups.
jschmidt97tj 2008-06-17 23:25:46
z-man, you da man. another awesome set. thanks for all the work. id love to buy you a beer or 3 at vibes if youre going. and i hate to ask but did you get citizen cope?
hoptrip 2008-06-18 03:24:18
Thanks so much! I just got back to Boise ID. I can't wair to hear all this great stuff from MTN JAM
zmanatl 2008-06-18 08:58:57
I do like TLG. They are opening for Mule in Columbus for $5.00! Such a deal! I did tape Citizen Cope jschmidt. Are you Jonathan I met at Phil at the Beacon in 99? Patience and I will get Citizen Cope up. Still have lots unseeded. No time.

Add a comment


http://etree.org : http://db.etree.org : http://forums.etree.org : http://wiki.etree.org : Legal : RSS Feed

Contents designed & maintained by the etree.org volunteers
1998-2014, etree.org, except where noted. All Rights Reserved.
Read our terms of service and privacy guidelines