bt.etree.org
etree.org Community Bittorrent Tracker
ArtistOther
ShowBoris Garcia Erie Amphitheatre Erie, Pennsylvania 8/26/2008
Report this as
non-Trade-Friendly
Email us
Torrentborisgarcia2008-08-26.flac16.torrent (click to download)
Downloads asborisgarcia2008-08-26.flac16
Info hash47810cb68d51db08af9a75afdaecc64d6ac1cf29
DescriptionBoris Garcia
Erie Amphitheatre
Erie, Pennsylvania
8/26/2008

Source: Yamaha Soundboard M2000>Lunatec V2>Sound Devices 722 (24/48)
location: Soundboard
DSP: Sound Devices 722>Sound Forge 7.0>CD Wave>flac(16)
Recorded By: The Z-Man
Seeded By: The Z-Man

Disc I

01 Introduction
02 Other Show
03 Through the Window
04 She's Still Laughing
05 Radio Song
06 Holiday
07 Scootch
08 Other Side
09 Schwenksville Town

borisgarcia2008-08-26d01t01.flac:8c253b0bbffce419878f8eb24c4d4506
borisgarcia2008-08-26d01t02.flac:8dafa57e2ab4e9104ef2fb53d6a7a3b0
borisgarcia2008-08-26d01t03.flac:dfc9bcf41e18222cb4ae25db51f76926
borisgarcia2008-08-26d01t04.flac:1b7b70020d5f4b8bc648afc1ab6aad4f
borisgarcia2008-08-26d01t05.flac:a8107be2613d8b95fc7a1cc8ec1b3ccf
borisgarcia2008-08-26d01t06.flac:f0be5c8c5ee2d4d4e5bca86655b559eb
borisgarcia2008-08-26d01t07.flac:6d202078d219f45afcd36d5b84ee1c49
borisgarcia2008-08-26d01t08.flac:0088e30c8a21ba1816d2c1cdcf655ab6
borisgarcia2008-08-26d01t09.flac:176557f74b647ea43d6fa96b46d03f76

shntool 3.0.4
Copyright (C) 2000-2007 Jason Jordan <shnutils@freeshell.org>

length expanded size cdr WAVE problems fmt ratio filename
0:41.62 7378268 B --- -- ---xx flac 0.2634 borisgarcia2008-08-26d01t01.flac
5:05.12 53830268 B --- -- ---xx flac 0.4865 borisgarcia2008-08-26d01t02.flac
6:06.43 64663580 B --- -- ---xx flac 0.5073 borisgarcia2008-08-26d01t03.flac
5:13.42 55312028 B --- -- ---xx flac 0.4766 borisgarcia2008-08-26d01t04.flac
8:41.23 91958540 B --- -- ---xx flac 0.4288 borisgarcia2008-08-26d01t05.flac
5:38.63 59771420 B --- -- ---xx flac 0.4292 borisgarcia2008-08-26d01t06.flac
5:08.38 54420620 B --- -- ---xx flac 0.4311 borisgarcia2008-08-26d01t07.flac
11:02.01 116779196 B --- -- ---xx flac 0.3901 borisgarcia2008-08-26d01t08.flac
9:21.16 98998076 B --- -- ---xx flac 0.5628 borisgarcia2008-08-26d01t09.flac
56:59.00 603111996 B 0.4595 (9 files)

Checksumsborisgarcia2008-08-26d01t01.flac:8c253b0bbffce419878f8eb24c4d4506
borisgarcia2008-08-26d01t02.flac:8dafa57e2ab4e9104ef2fb53d6a7a3b0
borisgarcia2008-08-26d01t03.flac:dfc9bcf41e18222cb4ae25db51f76926
borisgarcia2008-08-26d01t04.flac:1b7b70020d5f4b8bc648afc1ab6aad4f
borisgarcia2008-08-26d01t05.flac:a8107be2613d8b95fc7a1cc8ec1b3ccf
borisgarcia2008-08-26d01t06.flac:f0be5c8c5ee2d4d4e5bca86655b559eb
borisgarcia2008-08-26d01t07.flac:6d202078d219f45afcd36d5b84ee1c49
borisgarcia2008-08-26d01t08.flac:0088e30c8a21ba1816d2c1cdcf655ab6
borisgarcia2008-08-26d01t09.flac:176557f74b647ea43d6fa96b46d03f76
TypeOther
Last seederLast activity 52 days, 14:05:01 ago
Size264.28 MB (277120291 Bytes)
Added2008-08-29 10:38:45
Views0
Hits669
Snatched31 times
Upped byzmanatl
Num files
[See full list]
10 files
Seeders
[Hide list]
0 Seeder(s)
Leechers
[Hide list]
0 Leecher(s)

Add a comment

zmanatl 2008-08-29 11:14:33
Here is the opening band from the Commander Cody show I caught in Erie on Tuesday night. Sorry for the slight delay as I was at a couple of shows and also had work to contend with. This was my first time seeing these guys. I was pleasantly surprised and would not hesitate seeing them again! A little Slam Grass is always very good for the soul.

Enjoy!

padelimike 2008-08-29 14:27:41
Sweet.
"Slamgrass", eh?
Also sweet. Thanks. WAY looking forward to it, wind and all!
zmanatl 2008-08-29 16:59:20
There is NO wind issue as I took the board patch.
padelimike 2008-08-29 18:58:21
Yeah-I read that-I meant wind for the players.
Thanks again! My first Boris 'board!
jci35 2008-08-30 10:37:30
Thanks for this!
tomp99 2008-12-22 21:52:58
Thanks for this set, and a big thank you to the seeder who pulled me through!

tom

Add a comment


http://etree.org : http://db.etree.org : http://forums.etree.org : http://wiki.etree.org : Legal : RSS Feed

Contents designed & maintained by the etree.org volunteers
1998-2014, etree.org, except where noted. All Rights Reserved.
Read our terms of service and privacy guidelines