bt.etree.org
etree.org Community Bittorrent Tracker
ArtistThe Dead
ShowThe Dead Bryce Jordan Center State College, Pennsylvania 10/13/2008 FOB Schoeps
Report this as
non-Trade-Friendly
Email us
Torrentthedead2008-10-13.flac16.torrent (click to download)
Downloads asthedead2008-10-13.flac16
Info hashe6533145cd830ecee8c5548e562b37f0fb832138
db linkhttp://db.etree.org/shn/95294 | Show | Source
DescriptionThe Dead
Change Rocks Benefit for Barack Obama
Bryce Jordan Center
State College, Pennsylvania
10/13/2008

Source: Schoeps CCM4V'S(din)>Lunatec V2>Sound Devices 722 (24/48)
location: FOB/DFC/KFC/ZFC/AARP 50' From Stage, 6' High
DSP: Sound Devices 722>Sound Forge 7.0>CD Wave>flac(16)
Recorded By: Z-Man
Seeded By: Z-Man

Disc I

01 Barack Obama Speech
02 Truckin' >
03 U. S. Blues
04 Help On The Way >
05 Slipknot! >
06 Franklin's Tower
07 Playin' In The Band >
08 Dark Star

Disc II

01 St. Stephen
02 Unbroken Chain >
03 The Other One >
04 Throwin' Stones >
05 Jam >
06 Playin' In The Band
Encore:
07 Phil Donor Rap
08 Bob's Political Statement
09 Touch Of Gray >
10 Not Fade Away

thedead2008-10-13d01t01.flac:44d56e8039d730054932588ca803916c
thedead2008-10-13d01t02.flac:10342a88d8bb8c9d27348f22a3854a65
thedead2008-10-13d01t03.flac:75501ffd90429704e8eea5d96e821550
thedead2008-10-13d01t04.flac:5cb34f22bdeee072e3b0c196ebda0459
thedead2008-10-13d01t05.flac:59eb428d6f0b780c7f9c2bfd7b8d71de
thedead2008-10-13d01t06.flac:96e07c98904cad28186162bbc7103424
thedead2008-10-13d01t07.flac:469ff6dc97080c8f005b3428154c778a
thedead2008-10-13d01t08.flac:806e1ea9a5c6a1f879c562ddf8aa02cb
thedead2008-10-13d02t01.flac:e2eef090870e820e0513c4e4613e327d
thedead2008-10-13d02t02.flac:9a57488a14ff631b1884302b830f6f92
thedead2008-10-13d02t03.flac:1a90a3b765d3c47ff0692cb4e4627e7c
thedead2008-10-13d02t04.flac:e95d6cbc0cf3b647e6af3fb3517d0e5f
thedead2008-10-13d02t05.flac:eed32c33c4383085ac7cd321607e59bb
thedead2008-10-13d02t06.flac:e270720e2bee1ae0eb36b6b7158ee9bb
thedead2008-10-13d02t07.flac:c6c6d8f1f4d4a1d1f06e96965c057bfb
thedead2008-10-13d02t08.flac:0996e5f8aac889d14d204b1054490493
thedead2008-10-13d02t09.flac:ba85c0da6a3aad19b4806db02f5146b8
thedead2008-10-13d02t10.flac:7d8a2557fe9f02d19f775221f915108c

shntool 3.0.4
Copyright (C) 2000-2007 Jason Jordan <shnutils@freeshell.org>

length expanded size cdr WAVE problems fmt ratio filename
1:38.00 17287244 B --- -- ---xx flac 0.4424 thedead2008-10-13d01t01.flac
14:55.14 157910972 B --- -- ---xx flac 0.5749 thedead2008-10-13d01t02.flac
6:08.67 65072828 B --- -- ---xx flac 0.5914 thedead2008-10-13d01t03.flac
5:02.71 53439836 B --- -- ---xx flac 0.5662 thedead2008-10-13d01t04.flac
7:46.42 82301228 B --- -- ---xx flac 0.5673 thedead2008-10-13d01t05.flac
10:10.34 107684012 B --- -- ---xx flac 0.5719 thedead2008-10-13d01t06.flac
10:54.05 115377404 B --- -- ---xx flac 0.5176 thedead2008-10-13d01t07.flac
15:38.02 165467948 B --- -- ---xx flac 0.5098 thedead2008-10-13d01t08.flac
11:18.02 119603948 B --- -- ---xx flac 0.5435 thedead2008-10-13d02t01.flac
13:51.07 146604908 B --- -- ---xx flac 0.5345 thedead2008-10-13d02t02.flac
11:40.16 123517676 B --- -- ---xx flac 0.5389 thedead2008-10-13d02t03.flac
10:29.66 111110876 B --- -- ---xx flac 0.5572 thedead2008-10-13d02t04.flac
5:32.52 58687148 B --- -- ---xx flac 0.4789 thedead2008-10-13d02t05.flac
4:39.33 49293260 B --- -- ---xx flac 0.5021 thedead2008-10-13d02t06.flac
1:16.33 13484060 B --- -- ---xx flac 0.4309 thedead2008-10-13d02t07.flac
0:27.22 4814588 B --- -- ---xx flac 0.4307 thedead2008-10-13d02t08.flac
6:53.32 72928508 B --- -- ---xx flac 0.5836 thedead2008-10-13d02t09.flac
10:24.38 110163020 B --- -- ---xx flac 0.5402 thedead2008-10-13d02t10.flac
148:47.11 1574749464 B 0.5424 (18 files)

Checksumsthedead2008-10-13d01t01.flac:44d56e8039d730054932588ca803916c<br />
thedead2008-10-13d01t02.flac:10342a88d8bb8c9d27348f22a3854a65<br />
thedead2008-10-13d01t03.flac:75501ffd90429704e8eea5d96e821550<br />
thedead2008-10-13d01t04.flac:5cb34f22bdeee072e3b0c196ebda0459<br />
thedead2008-10-13d01t05.flac:59eb428d6f0b780c7f9c2bfd7b8d71de<br />
thedead2008-10-13d01t06.flac:96e07c98904cad28186162bbc7103424<br />
thedead2008-10-13d01t07.flac:469ff6dc97080c8f005b3428154c778a<br />
thedead2008-10-13d01t08.flac:806e1ea9a5c6a1f879c562ddf8aa02cb<br />
thedead2008-10-13d02t01.flac:e2eef090870e820e0513c4e4613e327d<br />
thedead2008-10-13d02t02.flac:9a57488a14ff631b1884302b830f6f92<br />
thedead2008-10-13d02t03.flac:1a90a3b765d3c47ff0692cb4e4627e7c<br />
thedead2008-10-13d02t04.flac:e95d6cbc0cf3b647e6af3fb3517d0e5f<br />
thedead2008-10-13d02t05.flac:eed32c33c4383085ac7cd321607e59bb<br />
thedead2008-10-13d02t06.flac:e270720e2bee1ae0eb36b6b7158ee9bb<br />
thedead2008-10-13d02t07.flac:c6c6d8f1f4d4a1d1f06e96965c057bfb<br />
thedead2008-10-13d02t08.flac:0996e5f8aac889d14d204b1054490493<br />
thedead2008-10-13d02t09.flac:ba85c0da6a3aad19b4806db02f5146b8<br />
thedead2008-10-13d02t10.flac:7d8a2557fe9f02d19f775221f915108c<br />
TypeThe Dead
Last seederLast activity 24:41 ago
Size814.62 MB (854186361 Bytes)
Added2008-10-14 07:59:05
Views0
Hits2974
Snatched1947 times
Upped byzmanatl
Num files
[See full list]
19 files
Peers
[See full list]
0 seeders, 1 leecher = 1 peer total

Add a comment

<< Prev      Next >>
1 - 20 | 21 - 40 | 41 - 42

Digam11 2010-10-04 16:37:05
Thanks
whisperingdove65 2011-02-25 20:06:40
Thank you kindly!!

1 - 20 | 21 - 40 | 41 - 42
<< Prev      Next >>

Add a comment


http://etree.org : http://db.etree.org : http://forums.etree.org : http://wiki.etree.org : Legal : RSS Feed

Contents designed & maintained by the etree.org volunteers
1998-2014, etree.org, except where noted. All Rights Reserved.
Read our terms of service and privacy guidelines