bt.etree.org
etree.org Community Bittorrent Tracker
ArtistGarcia
ShowJerry Garcia Band @ Pismo Theater 1976-11-20 SBD #22409
Report this as
non-Trade-Friendly
Email us
Torrentjg1976-11-20.jgb.sbd.early.late.ladner.22409.sbeok.shnf.torrent (click to download)
Downloads asjg1976-11-20.jgb.sbd.early.late.ladner.22409.sbeok.shnf
Info hasha47c7b663b3125ed4682d02f79691d255da469ec
db linkhttp://db.etree.org/shn/22409 | Show | Source
DescriptionJerry Garcia Band
11-20-1976
Pismo Theater
Pismo Beach, CA

Source: MSC>C3>DAT>WAV>SHN.
Cassette>DAT transfer: Nakamichi DR-2 cassette deck>Tascam DA-30 Mk II by J. Powell.
DAT>SHN transfer: Sony PCM-R500 > coaxial S/PIDF > M Audio Audiophile 2496/P4 2.0 GHz > WAV recording/editing (Soundforge 6.0) > tracking (CDWave editor)>sector boundaries confirmed (shntool) > SHN (mkwact) by C. Ladner.

Disc 1 - Early Show
01 I Second That Emotion [13:39]
02 Stop That Train [14:54]
03 It Takes A Lot To Laugh, It Takes A Train To Cry [08:48]
04 After Midnight [14:56]
05 Friend Of The Devil [08:37]
06 Sitting In Limbo [13:04]
Total time: 73:59

Disc 2 - Early Show (cont'd)
01 How Sweet It Is (To Be Loved By You) [10:17]
02 Night They Drove Old Dixie Down [08:36]
03 Midnight Moonlight [10:16]
Late Show
04 The Way You Do The Things You Do [10:52]
05 They Love Each Other [09:41]
06 Knockin' On Heaven's Door [17:18]
Total time: 67:01

Disc 3 - Late Show (cont'd)
01 Mystery Train [13:42]
02 A Strange Man [06:31]
03 Don't Let Go [26:49]
04 How Sweet It Is (To Be Loved By You) [09:19]
Total time: 56:21

Comments: Scarcely circulated multianalog generation SBD recording. It has hiss - you've been warned. This is the raw transfer without any noise reduction.

The setlist of this recording differs from that on thejerrylist.com on the last 2 songs of the late show which lists "Tore Up Over You" and "Ride Mighty High" as the final two tracks. The end of DLG is not cut on this recording as listed on thejerrysite, though there was a small drop out on the master which was seamlessly removed (see below). There is no audible break in the music between the end of Don't Let Go and How Sweet It Is. Quiet on-stage banter can be heard at a low level from the end of DLG that continues on through the countoff into How Sweet It Is. The version of "How Sweet It Is" is different than the one played during the early show and at the end Jerry says "Goodnight".

Flaws:
d1t01 - first few notes missing
d1t04 - d/o at 08:41 removed using SF6 with a small amount of music missing.
d2t02 - d/o @ 07:08 with truncation of "yankee laid him in his grave" and the rest of the verse.
d2t06 - d/o @ 10:26 with small subsecond bit of missing music.
d3t03 - d/o @ 19:33 with a "BEEP" in the middle deleted with no apparent missing music.
There are a few tape pauses between tracks however the overall recording quality/level of hiss remains the same for the entire show, suggesting the entire recording is from a single source. The pitch was flat and I increased by .02 semitones corresponding to a transposition ratio of 1.01162 using SF6.

another installment of the misSHN in the rain, 2/04.

length expanded size cdr WAVE problems filename
13:39.03 144478700 --- -- ---xx jgb76-11-20d1t01.shn
14:54.15 157736924 --- -- ---xx jgb76-11-20d1t02.shn
8:48.29 93207452 --- -- ---xx jgb76-11-20d1t03.shn
14:56.32 158129708 --- -- ---xx jgb76-11-20d1t04.shn
8:37.38 91288220 --- -- ---xx jgb76-11-20d1t05.shn
13:04.04 138307052 --- -- ---xx jgb76-11-20d1t06.shn
10:17.31 108911756 --- -- ---xx jgb76-11-20d2t01.shn
8:35.66 91001276 --- -- ---xx jgb76-11-20d2t02.shn
10:16.36 108747116 --- -- ---xx jgb76-11-20d2t03.shn
10:51.68 114996380 --- -- ---xx jgb76-11-20d2t04.shn
9:41.29 102556652 --- -- ---xx jgb76-11-20d2t05.shn
17:18.42 183202028 --- -- ---xx jgb76-11-20d2t06.shn
13:41.74 144998492 --- -- ---xx jgb76-11-20d3t01.shn
6:31.10 68995964 --- -- ---xx jgb76-11-20d3t02.shn
26:48.56 283782956 --- -- ---xx jgb76-11-20d3t03.shn
9:19.45 98713484 --- -- ---xx jgb76-11-20d3t04.shn
197:22.53 2089054160 B (totals for 16 files, 0.6335 overall compression ratio)
Checksums2146730d7cfa8cb623f5da1bd7a78143 *jgb76-11-20d1t01.shn
53dbe1915a79bf720fb339d9dd974f79 *jgb76-11-20d1t02.shn
f58ca9e772982eb054c1ec5e8057ec97 *jgb76-11-20d1t03.shn
956313f096937016d96f2b71717c05e2 *jgb76-11-20d1t04.shn
b09feeb664c91b1d632623a13a202d5e *jgb76-11-20d1t05.shn
2fc14512206bf9db34fbacd778258175 *jgb76-11-20d1t06.shn
27af01f6a4e15a9ad2e273f5b9b6ee7b *jgb76-11-20d2t01.shn
4edd524a615a00adb861a117dc9bff06 *jgb76-11-20d2t02.shn
5262141467c708fc01c7d68a8564a9ae *jgb76-11-20d2t03.shn
0b2d131dc3cdf96c6f763fba96bbcb74 *jgb76-11-20d2t04.shn
66aa3de8ce0bd151c4f997cecc80d84f *jgb76-11-20d2t05.shn
a8f4dc798f1c68aefd1d7115ad51f14c *jgb76-11-20d2t06.shn
95ebcc35f2d545fd27244223125ab177 *jgb76-11-20d3t01.shn
f6ff29a7e873faa7abaaeee832e279e4 *jgb76-11-20d3t02.shn
e96ba99770109c9f672aab55572a58c5 *jgb76-11-20d3t03.shn
d3fb8b2dfd350bc831606d9ebee8fc39 *jgb76-11-20d3t04.shn
TypeGarcia
Last seederLast activity 10:11 ago
Size1.233 GB (1323460385 Bytes)
Added2008-11-15 10:07:11
Views0
Hits930
Snatched513 times
Upped byArbuthnot
Num files
[See full list]
19 files
Peers
[See full list]
1 seeder, 0 leechers = 1 peer total

Add a comment

Arbuthnot 2008-11-15 10:08:14
3+ hours of Jerry bliss; enjoy
cryptical5413 2008-11-15 10:48:50
thank you
rsterrapin 2008-11-15 10:58:44
Very cool...many thanks!
srken1 2008-11-15 11:08:44
WOW was at these shows. Havn't ever seen them available till now. Can remember that the Heaven's Door was killer. Will be seeing if memory served well shortly. THANX MUCHLY!!!
southernkiwi 2008-11-16 06:07:31
Thank you
Cranky1 2008-11-16 09:39:50
Thanks again for another kind torrent. Three hours of Jerry helps to center my mind!
dbgordon 2008-11-16 12:38:31
thanks! looking forward to some SBD JGB!
terrapin132 2008-11-27 10:50:06
thanks
photoleon 2009-01-23 15:10:45
Thank You! I use to have this on cassette, but it got destroyed. I'm, very grateful to have it back.

Add a comment


http://etree.org : http://db.etree.org : http://forums.etree.org : http://wiki.etree.org : Legal : RSS Feed

Contents designed & maintained by the etree.org volunteers
1998-2014, etree.org, except where noted. All Rights Reserved.
Read our terms of service and privacy guidelines