bt.etree.org
etree.org Community Bittorrent Tracker
ArtistGrateful Dead
Show{DttC060} 1981-05-01,11,16: Hampton, New Haven, Barton Hall [SHNIDs 29087, 30646, 30647]
Report this as
non-Trade-Friendly
Email us
TorrentDttC060.torrent (click to download)
Downloads asDttC060
Info hashff3d19a371b9fe2f942008d19f273db331d96c80
db linkhttp://db.etree.org/shn/105787 | Show | Source
DescriptionGrateful Dead
05/01/81 (Fri)
Hampton Coliseum
Hampton, VA

Source: SBD > MC > C > DAT > CD > EAC > FLAC

Disc 1
Set 1:
01. Alabama Getaway > (04:52.01)
02. Promised Land (04:28.55)
03. Friend Of The Devil > (09:31.46)
04. Me and My Uncle > (03:02.66)
05. Big River (06:07.15)
06. Althea > (08:44.56)
07. Little Red Rooster (09:27.61)
08. Tennessee Jed > (08:51.27)
09. Let It Grow > (10:17.66)
10. Deal (07:17.09)
Disc Time - 72:41.27

Disc 2
Set 2:
01. Feel Like A Stranger > (09:49.24)
02. Franklin's Tower > (11:24.20)
03. Lost Sailor > (06:07.61)
04. Saint Of Circumstance > (06:27.06)
05. He's Gone > (11:28.56)
06. The Other One > (05:47.03)
07. Drums > (09:04.22)
Disc Time - 60:08.42

Disc 3
01. Space > (07:45.00)
02. The Wheel > (05:53.02)
03. Wharf Rat > (10:17.14)
04. Sugar Magnolia (08:49.08)
05. E: U.S. Blues (05:08.69)
Disc Time - 37:53.18


EAC/FLAC by Darryl Hinko (flyerfanatic)
Any questions contact me at: flyerfanatic2817@yahoo.com
EAC in secure mode with proper offsets used to extract
SHNtool to join and confirm sector boundries
CDwav used to split tracks
Cool Edit Pro used for all editing
FLAC frontend for encoding to FLAC

Patch Source:
Jim Wise's Master FOB Audience Cassette > Sennheiser 421 mics>
Sony D5 cassette deck > DAT > CDR
http://db.etree.org/shninfo_detail.php?shnid=2218

Notes:

- Crossfade from 4:03 d1t02 through 0:02 of d1t03; a couple of
notes were clipped from FOTD.

- d1t06 Althea: Crossfade from 0:00 - 0:05 to fill in a couple of
notes.

- Crossfade from 10:45 d2t02 through 0:15 of d2t03

- d3t02 The Wheel: Crossfade from 0:02 - 0:06

- d3t04 Sugar Magnolia: Crossfade from 5:18 - 5:25; This is really
just audience fill, but when I cut out the dropout it didn't sound
natural, so I filled in some of the highhat beats.

- d3t05 US Blues: Crossfade from 4:01 - 4:44

Enjoy!

length expanded size cdr WAVE problems fmt ratio filename
4:52.01 51511196 B --- -- ---xx flac 0.6106 gd1981-05-01d1t01.flac
4:28.55 47404604 B --- -- ---xx flac 0.6208 gd1981-05-01d1t02.flac
9:31.46 100832636 B --- -- ---xx flac 0.5856 gd1981-05-01d1t03.flac
3:02.66 32260076 B --- -- ---xx flac 0.6018 gd1981-05-01d1t04.flac
6:07.15 64774124 B --- -- ---xx flac 0.6037 gd1981-05-01d1t05.flac
8:44.56 92565356 B --- -- ---xx flac 0.5841 gd1981-05-01d1t06.flac
9:27.61 100162316 B --- -- ---xx flac 0.5897 gd1981-05-01d1t07.flac
8:51.27 93731948 B --- -- ---xx flac 0.6084 gd1981-05-01d1t08.flac
10:17.66 108994076 B --- -- ---xx flac 0.6273 gd1981-05-01d1t09.flac
7:17.09 77108012 B --- -- ---xx flac 0.6330 gd1981-05-01d1t10.flac
9:49.24 103956092 B --- -- ---xx flac 0.6220 gd1981-05-01d2t01.flac
11:24.20 120704684 B --- -- ---xx flac 0.6273 gd1981-05-01d2t02.flac
6:07.61 64882316 B --- -- ---xx flac 0.5616 gd1981-05-01d2t03.flac
6:27.06 68280956 B --- -- ---xx flac 0.6089 gd1981-05-01d2t04.flac
11:28.56 121494956 B --- -- ---xx flac 0.5491 gd1981-05-01d2t05.flac
5:47.03 61217900 B --- -- ---xx flac 0.5976 gd1981-05-01d2t06.flac
9:04.22 96013388 B --- -- ---xx flac 0.5579 gd1981-05-01d2t07.flac
7:45.00 82026044 B --- -- ---xx flac 0.5195 gd1981-05-01d3t01.flac
5:53.02 62273948 B --- -- ---xx flac 0.5965 gd1981-05-01d3t02.flac
10:17.14 108871772 B --- -- ---xx flac 0.5744 gd1981-05-01d3t03.flac
8:49.08 93334460 B --- -- ---xx flac 0.6287 gd1981-05-01d3t04.flac
5:08.69 54493532 B --- -- ---xx flac 0.6223 gd1981-05-01d3t05.flac
170:43.12 1806894392 B 0.5955 (22 files)

==========

Grateful Dead - May 11, 1981
New Haven Coliseum - New Haven, CT

Recording Info:
SBD -> Master Cassette -> Reel -> Dat

Transfer Info:
Dat (Sony R500) -> SEK'D Prodif Plus -> Samplitude v7.02 Professional -> FLAC
(3 Discs Audio / 2 Discs FLAC)

Transferred and Edited By Charlie Miller
charliemiller87@earthlink.net
August 23, 2005

Notes:
-- To Lay Me Down patched from (FOB)AUD>Cm>Dat>CD.
-- Seamless transition between Discs 2 and 3.

Set 1:
d1t01 - New Minglewood Blues ->
d1t02 - Sugaree ->
d1t03 - El Paso
d1t04 - Jack-A-Roe
d1t05 - Beat It On Down The Line
d1t06 - Row Jimmy
d1t07 - It's All Over Now
d1t08 - Althea
d1t09 - Lazy Lightnin' ->
d1t10 - Supplication
d1t11 - Don't Ease Me In

Set 2:
d2t01 - Scarlet Begonias ->
d2t02 - Fire On The Mountain ->
d2t03 - C C Rider
d2t04 - To Lay Me Down
d2t05 - Playing In The Band -
d2t06 - Drums ->
d3t01 - Space ->
d3t02 - The Wheel ->
d3t03 - Playing In The Band ->
d3t04 - China Doll ->
d3t05 - Around And Around ->
d3t06 - Good Lovin'

Encore:
d3t07 - (I Can't Get No) Satisfaction

length expanded size cdr WAVE problems fmt ratio filename
6:48.24 72027692 B --- -- ---xx flac 0.5211 gd81-05-11d1t01.flac
11:21.59 120267212 B --- -- ---xx flac 0.5818 gd81-05-11d1t02.flac
5:55.57 62756108 B --- -- ---xx flac 0.5668 gd81-05-11d1t03.flac
4:30.21 47677436 B --- -- ---xx flac 0.5961 gd81-05-11d1t04.flac
3:43.32 39412508 B --- -- ---xx flac 0.6073 gd81-05-11d1t05.flac
9:51.55 104381804 B --- -- ---xx flac 0.5802 gd81-05-11d1t06.flac
8:46.40 92880524 B --- -- ---xx flac 0.5817 gd81-05-11d1t07.flac
7:42.19 81541532 B --- -- ---xx flac 0.5653 gd81-05-11d1t08.flac
3:13.52 34167548 B --- -- ---xx flac 0.5938 gd81-05-11d1t09.flac
6:22.15 67420124 B --- -- ---xx flac 0.5674 gd81-05-11d1t10.flac
3:10.39 33607772 B --- -- ---xx flac 0.5964 gd81-05-11d1t11.flac
10:45.34 113858012 B --- -- ---xx flac 0.5905 gd81-05-11d2t01.flac
10:38.30 112613804 B --- -- ---xx flac 0.5904 gd81-05-11d2t02.flac
9:12.58 97509260 B --- -- ---xx flac 0.5784 gd81-05-11d2t03.flac
9:38.12 101987468 B --- -- ---xx flac 0.5951 gd81-05-11d2t04.flac
13:02.00 137944844 B --- -- ---xx flac 0.5659 gd81-05-11d2t05.flac
11:15.70 119234684 B --- -- ---xx flac 0.5165 gd81-05-11d2t06.flac
5:03.02 53453948 B --- -- ---xx flac 0.4894 gd81-05-11d3t01.flac
4:50.47 51266588 B --- -- ---xx flac 0.5467 gd81-05-11d3t02.flac
5:52.02 62097548 B --- -- ---xx flac 0.5521 gd81-05-11d3t03.flac
6:13.20 65844284 B --- -- ---xx flac 0.5564 gd81-05-11d3t04.flac
4:12.13 44483420 B --- -- ---xx flac 0.6159 gd81-05-11d3t05.flac
8:10.47 86546588 B --- -- ---xx flac 0.5900 gd81-05-11d3t06.flac
6:35.15 69713324 B --- -- ---xx flac 0.5847 gd81-05-11d3t07.flac
176:56.13 1872694032 B 0.5711 (24 files)

==========

Grateful Dead - May 16, 1981
Cornell University
Barton Hall - Ithaca, NY

Recording Info:
Set 1: SBD -> Master Cassette -> Reel -> Dat
Set 2: SBD -> Master Cassette -> Dat

Transfer Info:
Dat (Sony R500) -> SEK'D Prodif Plus -> Samplitude v7.02 Professional -> FLAC
(3 Discs Audio / 2 Discs FLAC)

Transferred and Edited By Charlie Miller
charliemiller87@earthlink.net
August 23, 2005

Notes:
-- Seamless transition between Discs 2 and 3.
-- Stella Blue through end of show Nak 300/CP4>Cm>Sound Forge>CD

Set 1:
d1t01 - Feel Like A Stranger
d1t02 - Friend Of The Devil
d1t03 - Me And My Uncle ->
d1t04 - Big River
d1t05 - Althea ->
d1t06 - C C Rider
d1t07 - Brown Eyed Women
d1t08 - Passenger
d1t09 - High Time ->
d1t10 - Let It Grow ->
d1t11 - Don't Ease Me In

Set 2:
d2t01 - Tuning
d2t02 - Shakedown Street ->
d2t03 - Bertha ->
d2t04 - Lost Sailor ->
d2t05 - Saint Of Circumstance ->
d2t06 - Spanish Jam ->
d2t07 - Drums ->
d3t01 - Space ->
d3t02 - Truckin' ->
d3t03 - Nobody's Fault But Mine Jam ->
d3t04 - Stella Blue ->
d3t05 - Goin' Down The Road Feeling Bad ->
d3t06 - One More Saturday Night

Encore:
d3t07 - Uncle John's Band

length expanded size cdr WAVE problems fmt ratio filename
8:31.29 90208652 B --- -- ---xx flac 0.5912 gd81-05-16d1t01.flac
9:36.56 101738156 B --- -- ---xx flac 0.5921 gd81-05-16d1t02.flac
3:02.24 32161292 B --- -- ---xx flac 0.6193 gd81-05-16d1t03.flac
6:10.62 65413868 B --- -- ---xx flac 0.6281 gd81-05-16d1t04.flac
9:02.07 95625308 B --- -- ---xx flac 0.6027 gd81-05-16d1t05.flac
8:37.46 91307036 B --- -- ---xx flac 0.5906 gd81-05-16d1t06.flac
5:30.06 58226156 B --- -- ---xx flac 0.5837 gd81-05-16d1t07.flac
5:26.54 57633452 B --- -- ---xx flac 0.6120 gd81-05-16d1t08.flac
8:17.25 87729644 B --- -- ---xx flac 0.5629 gd81-05-16d1t09.flac
10:57.01 115897196 B --- -- ---xx flac 0.6085 gd81-05-16d1t10.flac
3:16.65 34727324 B --- -- ---xx flac 0.6170 gd81-05-16d1t11.flac
1:43.04 18178652 B --- -- ---xx flac 0.4507 gd81-05-16d2t01.flac
16:18.74 172693292 B --- -- ---xx flac 0.5562 gd81-05-16d2t02.flac
5:48.14 61420172 B --- -- ---xx flac 0.5704 gd81-05-16d2t03.flac
6:27.21 68316236 B --- -- ---xx flac 0.5496 gd81-05-16d2t04.flac
7:03.65 74770124 B --- -- ---xx flac 0.5810 gd81-05-16d2t05.flac
8:59.00 95079644 B --- -- ---xx flac 0.5707 gd81-05-16d2t06.flac
8:23.57 88863308 B --- -- ---xx flac 0.4956 gd81-05-16d2t07.flac
5:53.16 62306876 B --- -- ---xx flac 0.4839 gd81-05-16d3t01.flac
6:04.22 64261388 B --- -- ---xx flac 0.5719 gd81-05-16d3t02.flac
2:31.22 26688188 B --- -- ---xx flac 0.5388 gd81-05-16d3t03.flac
9:57.43 105411980 B --- -- ---xx flac 0.5604 gd81-05-16d3t04.flac
6:25.18 67956380 B --- -- ---xx flac 0.6617 gd81-05-16d3t05.flac
4:17.18 45377180 B --- -- ---xx flac 0.6723 gd81-05-16d3t06.flac
9:25.00 99666044 B --- -- ---xx flac 0.6266 gd81-05-16d3t07.flac
177:46.74 1881657548 B 0.5812 (25 files)
Checksums67c7e9d2e2119d9bff85f571cc356512 *gd1981-05-01d1t01.flac
bdd1176cfd89a09483e20fb0224cec82 *gd1981-05-01d1t02.flac
5f82a47501a547285f0b3e14ca30586c *gd1981-05-01d1t03.flac
6b3743aab0543e978b5e202e9fdc36d8 *gd1981-05-01d1t04.flac
095d04d9a22d57b1ea51b8a7e9d03fff *gd1981-05-01d1t05.flac
367bec60849656e5ba67c94fdc65ea56 *gd1981-05-01d1t06.flac
0388391e3c277a0f0024f1a8f0128014 *gd1981-05-01d1t07.flac
c3381319902c7c0803b6c709ab01ab35 *gd1981-05-01d1t08.flac
7e49a372f2501dd795b65a455a31a906 *gd1981-05-01d1t09.flac
216fe7cd5716a82a4c39764b1681c480 *gd1981-05-01d1t10.flac
a4405f5c31914e30706abbc560ced801 *gd1981-05-01d2t01.flac
df4754f8aa15727ecc1ee3f7bbd32869 *gd1981-05-01d2t02.flac
a159903a401be5f3164389debe291c48 *gd1981-05-01d2t03.flac
487b1e768c200aca26b3f3d127248397 *gd1981-05-01d2t04.flac
1964c2e0849d1d39448e75e05a8751bd *gd1981-05-01d2t05.flac
0e4bf1064580573511a14b963e3b99d9 *gd1981-05-01d2t06.flac
ec1e1b95dd9c9b7855f3758eb880cdcd *gd1981-05-01d2t07.flac
08d920008a103e701ec5143667272247 *gd1981-05-01d3t01.flac
6e6d575e60515d136dd8e11a0d5c1552 *gd1981-05-01d3t02.flac
481923ea595dccb5b88bba08901d9751 *gd1981-05-01d3t03.flac
0de414ee38985f21ba90e97e33adde90 *gd1981-05-01d3t04.flac
0afd80c595f48188f2ab167ab4806ddb *gd1981-05-01d3t05.flac

67c7e9d2e2119d9bff85f571cc356512 *gd1981-05-01d1t01.flac
bdd1176cfd89a09483e20fb0224cec82 *gd1981-05-01d1t02.flac
5f82a47501a547285f0b3e14ca30586c *gd1981-05-01d1t03.flac
6b3743aab0543e978b5e202e9fdc36d8 *gd1981-05-01d1t04.flac
095d04d9a22d57b1ea51b8a7e9d03fff *gd1981-05-01d1t05.flac
367bec60849656e5ba67c94fdc65ea56 *gd1981-05-01d1t06.flac
0388391e3c277a0f0024f1a8f0128014 *gd1981-05-01d1t07.flac
c3381319902c7c0803b6c709ab01ab35 *gd1981-05-01d1t08.flac
7e49a372f2501dd795b65a455a31a906 *gd1981-05-01d1t09.flac
216fe7cd5716a82a4c39764b1681c480 *gd1981-05-01d1t10.flac
a4405f5c31914e30706abbc560ced801 *gd1981-05-01d2t01.flac
df4754f8aa15727ecc1ee3f7bbd32869 *gd1981-05-01d2t02.flac
a159903a401be5f3164389debe291c48 *gd1981-05-01d2t03.flac
487b1e768c200aca26b3f3d127248397 *gd1981-05-01d2t04.flac
1964c2e0849d1d39448e75e05a8751bd *gd1981-05-01d2t05.flac
0e4bf1064580573511a14b963e3b99d9 *gd1981-05-01d2t06.flac
ec1e1b95dd9c9b7855f3758eb880cdcd *gd1981-05-01d2t07.flac
08d920008a103e701ec5143667272247 *gd1981-05-01d3t01.flac
6e6d575e60515d136dd8e11a0d5c1552 *gd1981-05-01d3t02.flac
481923ea595dccb5b88bba08901d9751 *gd1981-05-01d3t03.flac
0de414ee38985f21ba90e97e33adde90 *gd1981-05-01d3t04.flac
0afd80c595f48188f2ab167ab4806ddb *gd1981-05-01d3t05.flac

3432df5620168dd86f115240c49b524a *gd81-05-16d1t01.flac
21eecfe24ac1f993129a1ce68ee34d3d *gd81-05-16d1t02.flac
114162aa5d8b1a82da809756e28b4db4 *gd81-05-16d1t03.flac
bbad9caf205884495e5a7caae71ad5e6 *gd81-05-16d1t04.flac
09462a71811bc2d69ca6d7929861251a *gd81-05-16d1t05.flac
ba001f29f749491eba8fb6310aa72df4 *gd81-05-16d1t06.flac
2a6a7d3601326d4c9b1309f5284275bb *gd81-05-16d1t07.flac
48d1155d486507e9de611d8f630e4c94 *gd81-05-16d1t08.flac
263859b5df9e01a64a8edaaeee6dc7da *gd81-05-16d1t09.flac
761b6f3640c83ea2882f09b8b31277b3 *gd81-05-16d1t10.flac
640fb51e585626d916fd35d07fac3b06 *gd81-05-16d1t11.flac
efc85419ae1e53a5fdec5df67a806a54 *gd81-05-16d2t01.flac
8190b241c92ee8ee4cd5fb3868d832e0 *gd81-05-16d2t02.flac
9fbb2a74f5f14ae266548772185ad0c8 *gd81-05-16d2t03.flac
3f01c7c3d52aeb4bdd3780f0e2a94220 *gd81-05-16d2t04.flac
54235f7a27044762e3f77f2a7b208d9d *gd81-05-16d2t05.flac
52d9211572e7b12e7f415be249ec0917 *gd81-05-16d2t06.flac
348f5e979cc49701683de8975b5fd413 *gd81-05-16d2t07.flac
5327889b95621dad436f60b11239b5a2 *gd81-05-16d3t01.flac
2b16e76c7bca03e029c16c396c1980af *gd81-05-16d3t02.flac
da9705df374b3e4aec44e278050bdbe6 *gd81-05-16d3t03.flac
ac96ebfc378bf20bc5342dc94b656e34 *gd81-05-16d3t04.flac
42f2beab6eb4b7727c04dad7c72c9694 *gd81-05-16d3t05.flac
9c2798ee21a870ce9e6fe1df2a484202 *gd81-05-16d3t06.flac
49c1079e0d929527a3f9b913a6af552b *gd81-05-16d3t07.flac
TypeGrateful Dead
Last seederLast activity 38 days, 15:57:02 ago
Size3.017 GB (3238996143 Bytes)
Added2008-11-22 00:42:33
Views0
Hits942
Snatched383 times
Upped bySteveSw
Num files
[See full list]
80 files
Seeders
[Hide list]
0 Seeder(s)
Leechers
[Hide list]
0 Leecher(s)

Add a comment

<< Prev      Next >>
1 - 20 | 21 - 25

mrmusichead 2008-11-23 18:17:16
Many thanks for sharing this!! Much appreciated!
hseamons 2008-11-23 21:38:53
I'm still wondering when the super-duper Quad-Aud matrix is going to surface...or has it?
superfreakie 2008-11-23 21:49:58
I thought you were hard at work on it Hunter : )
SteveSw 2008-11-24 00:15:00
while you're at it, make sure you include the monitor mix along with the sbd, the mtx, and the two auds. plus the other unpublished aud. let the waveform be unbroken.
hseamons 2008-11-24 19:28:38
"let the waveform be unbroken"

But never, NEVER cross the streams. Yeah, crossing the streams is bad.

1 - 20 | 21 - 25
<< Prev      Next >>

Add a comment


http://etree.org : http://db.etree.org : http://forums.etree.org : http://wiki.etree.org : Legal : RSS Feed

Contents designed & maintained by the etree.org volunteers
1998-2014, etree.org, except where noted. All Rights Reserved.
Read our terms of service and privacy guidelines