bt.etree.org
etree.org Community Bittorrent Tracker
ArtistOther
ShowMerle Haggard - 2009-06-14 - Bonnaroo - Manchester, TN. - Schoeps mk4v
Report this as
non-Trade-Friendly
Email us
Torrentmerlehaggard2009-06-14.mk4v.flac16.torrent (click to download)
Downloads asmerlehaggard2009-06-14.mk4v.flac16
Info hash32286c24008a5f82d147d9b13e0edad6f1d0ca7a
DescriptionMerle Haggard
2009-06-14
This Tent
Bonnaroo
Manchester, TN.


***16bit Source***


Source: Schoeps MK4V (ORTF) > KC5 > CMC6 > Sound Devices 722 (24bit/48kHz)
Location: FOB / DFC / 7ft.
Transfer: 722 > HDD > Wavelab 5.01b (Re-Sampler192/MBit+ Dither/DSP/Fades) > CDWave > FLAC (8)
Taped, Transferred & Seeded by Martin Medley.


One Set:

01. Intro
02. A Working Man Can't Get Nowhere Today
03. Big City
04. I Think I'll Just Stay Here And Drink
05. Folsom Prison Blues
06. Mama Tried
07. White Line Fever
08. Silver Wings
09. Workin' Man Blues
10. I Have A Little Gal
11. If I Could Only Fly
12. Are The Good Times Really Over
13. If You Got The Money (I've Got The Time)
14. That's the Way Love Goes
15. Honky Tonk Night Time Man
16. Jackson
17. Motorcycle Cowboy
18. The Running Kind
19. Rainbow Stew
20. Fightin' Side Of Me
21. If We Make It Through December
22. Okie From Muskogee
23. Outro


Thank you Merle. You are truly one of the best!



shntool info:

length expanded size cdr WAVE problems fmt ratio filename
1:01.33 10838060 B --- -- ---xx flac 0.5104 merlehaggard2009-06-14t01.flac
3:07.43 33087980 B --- -- ---xx flac 0.5608 merlehaggard2009-06-14t02.flac
3:23.13 35839820 B --- -- ---xx flac 0.5618 merlehaggard2009-06-14t03.flac
2:39.16 28085276 B --- -- ---xx flac 0.5719 merlehaggard2009-06-14t04.flac
3:12.03 33875900 B --- -- ---xx flac 0.5905 merlehaggard2009-06-14t05.flac
2:18.57 24477308 B --- -- ---xx flac 0.5815 merlehaggard2009-06-14t06.flac
2:02.08 21539660 B --- -- ---xx flac 0.5488 merlehaggard2009-06-14t07.flac
2:44.50 29047244 B --- -- ---xx flac 0.5375 merlehaggard2009-06-14t08.flac
3:49.58 40532060 B --- -- ---xx flac 0.5837 merlehaggard2009-06-14t09.flac
5:29.61 58179116 B --- -- ---xx flac 0.5906 merlehaggard2009-06-14t10.flac
3:38.09 38476412 B --- -- ---xx flac 0.5214 merlehaggard2009-06-14t11.flac
3:24.10 36009164 B --- -- ---xx flac 0.5544 merlehaggard2009-06-14t12.flac
2:48.53 29759900 B --- -- ---xx flac 0.5956 merlehaggard2009-06-14t13.flac
3:03.74 32455292 B --- -- ---xx flac 0.5440 merlehaggard2009-06-14t14.flac
3:58.10 42006764 B --- -- ---xx flac 0.6058 merlehaggard2009-06-14t15.flac
3:14.18 34263980 B --- -- ---xx flac 0.6086 merlehaggard2009-06-14t16.flac
3:52.30 40995404 B --- -- ---xx flac 0.5984 merlehaggard2009-06-14t17.flac
4:47.68 50786780 B --- -- ---xx flac 0.5607 merlehaggard2009-06-14t18.flac
3:19.71 35270636 B --- -- ---xx flac 0.5811 merlehaggard2009-06-14t19.flac
2:22.14 25081772 B --- -- ---xx flac 0.5936 merlehaggard2009-06-14t20.flac
1:39.23 17517740 B --- -- ---xx flac 0.6071 merlehaggard2009-06-14t21.flac
3:23.31 35882156 B --- -- ---xx flac 0.6055 merlehaggard2009-06-14t22.flac
1:41.58 17952860 B --- -- ---xx flac 0.6516 merlehaggard2009-06-14t23.flac
71:02.61 751961284 B 0.5773 (23 files)
Checksumsmerlehaggard2009-06-14t01.flac:a8d32066949e158b3c9657ccf4cff88b<br />
merlehaggard2009-06-14t02.flac:60e2f6676819cdb54d083c2562732ec3<br />
merlehaggard2009-06-14t03.flac:d7d9fe70815bb38cd60ce87f22baa330<br />
merlehaggard2009-06-14t04.flac:9c1311591e8e2c57d227089c70243f4d<br />
merlehaggard2009-06-14t05.flac:aa2493e2597ebd6e4a2e074de75643ca<br />
merlehaggard2009-06-14t06.flac:2a2d9db5c5e21cf23a474dfc8db2657f<br />
merlehaggard2009-06-14t07.flac:f2acaceae21528de337a09984b83eef0<br />
merlehaggard2009-06-14t08.flac:241258b2ea8295f55c084e31aa947087<br />
merlehaggard2009-06-14t09.flac:03c57f6924bdb2b0c73a05762cc1e031<br />
merlehaggard2009-06-14t10.flac:86f64c3877aaa75a80bb8c9240d88875<br />
merlehaggard2009-06-14t11.flac:39f362c5388ea9849c4e2238a942316f<br />
merlehaggard2009-06-14t12.flac:9d575c3289cf378fda9403a7264c8739<br />
merlehaggard2009-06-14t13.flac:2818aa631458723b33ecf0257a7f9287<br />
merlehaggard2009-06-14t14.flac:878da5de440f471fd22ba3a29ce68f91<br />
merlehaggard2009-06-14t15.flac:9bfab189af618832df9dd739ef8944e5<br />
merlehaggard2009-06-14t16.flac:a602cb67baed33a72b3d65d41e9781c7<br />
merlehaggard2009-06-14t17.flac:a2f45b9a0a692bc74cbb8f24a9a70b84<br />
merlehaggard2009-06-14t18.flac:a9b412f2242642178c542f7b1eb04aae<br />
merlehaggard2009-06-14t19.flac:57e53f8bc0e43026bb6fe7bc5494cb95<br />
merlehaggard2009-06-14t20.flac:cd70c485c072b32648cd1d7ebb0243fe<br />
merlehaggard2009-06-14t21.flac:513338b6b640b25b82df98eb27856963<br />
merlehaggard2009-06-14t22.flac:2a3724755c6ec329123055550f4d17a6<br />
merlehaggard2009-06-14t23.flac:1661f1ee1e403fe9cbc58222adefe301<br />
TypeOther
Last seederLast activity 19:00 ago
Size414.03 MB (434146732 Bytes)
Added2009-06-16 18:18:30
Views0
Hits1705
Snatched1386 times
Upped bydennistyler
Num files
[See full list]
24 files
Peers
[See full list]
0 seeders, 1 leecher = 1 peer total

Add a comment

<< Prev      Next >>
1 - 20 | 21 - 24

stick 2009-06-18 22:38:09
as a merle haggard fan, this is one great recording. thanks! I was hoping merle would get recorded.
indydarkstar 2009-06-19 07:11:13
thank you!!
keyd 2009-06-26 00:58:25
Thanks a lot for sharing. Great recording.

I am only interested in listening to a few roo shows this year.

This is the tops!
Luckymudster 2010-12-23 02:34:08
Thank you!!

1 - 20 | 21 - 24
<< Prev      Next >>

Add a comment


http://etree.org : http://db.etree.org : http://forums.etree.org : http://wiki.etree.org : Legal : RSS Feed

Contents designed & maintained by the etree.org volunteers
1998-2014, etree.org, except where noted. All Rights Reserved.
Read our terms of service and privacy guidelines