bt.etree.org
etree.org Community Bittorrent Tracker
ArtistPhish
ShowPhish Empire Polo Club Indio, California 10/30/2009
Report this as
non-Trade-Friendly
Email us
Torrentphish2009-10-30.flac16.torrent (click to download)
Downloads asphish2009-10-30.flac16
Info hashc6a607085972033a4cee77a399cdc2995f6015bf
db linkhttp://db.etree.org/shn/102259 | Show | Source
DescriptionPhish
Empire Polo Club
Indio, California
10/30/2009

Source: Schoeps CCM4V'S(din)>Lunatec V2>Benchmark AD2K>
Sound Devices 722 (24/48)
Location: FOB/DFC/KFC/ZFC/AARP 75' From Stage, 7' High
DSP: Sound Devices 722>Sound Forge 9.0>CD Wave>flac(16)
Recorded By: Z-Man
Seeded By: Z-Man

Disc I 1st Set

01 Party Time
02 Chalkdust Torture
03 Moma Dance >
04 NICU
05 Stealing Time From The Faulty Plan
06 Stash
07 I Didn't Know >
08 *Poor Heart
09 Cavern
10 Beauty Of A Broken Heart
11 Ocelot

Disc II 1st Set Con't

01 Time Turns Elastic
2nd Set:
02 Punch You In The Eye >
03 Down With Disease >
04 Prince Caspian >
05 Wolfman's Brother >
06 Piper >
07 ? >
08 Joy

Disc III 2nd Set Con't

01 David Bowie
02 Harry Hood >
03 Golgi Aparatus
Encore:
04 Character Zero

* With Jon Fishman Playing Henrietta

Flac Fingerprint

phish2009-10-30d01t01.flac:97d18ddc9a99a62d860a106aeb3352ff
phish2009-10-30d01t02.flac:ccacf208bee7eaaa8716ccc2b00b014e
phish2009-10-30d01t03.flac:85bfc0ec4c1e3a3f360e4cbeef21c640
phish2009-10-30d01t04.flac:27e98becfa66b92345f3987e5dd4581a
phish2009-10-30d01t05.flac:d61274ac50949608e7f6e7eba56255ce
phish2009-10-30d01t06.flac:72ab77be449f0ded93ddff5f9cd0c4f9
phish2009-10-30d01t07.flac:43c59e720c9eda45ef717d627f5bdab2
phish2009-10-30d01t08.flac:a059e93b5721f8af9e3a2858e0395a1f
phish2009-10-30d01t09.flac:f07624e1953e1be8a7075c2afb68dbf4
phish2009-10-30d01t10.flac:d212b8c400c27cbbdbab6733f97f1e9f
phish2009-10-30d01t11.flac:ab89b6a7ee7cd88b340a4181a58305da
phish2009-10-30d02t01.flac:7b523c0df96012d5056de6138a30a319
phish2009-10-30d02t02.flac:f75986e308678d3c013f35480b8f4ea6
phish2009-10-30d02t03.flac:963905eff309e66baa52a83fab5e59c4
phish2009-10-30d02t04.flac:1578fd4cb4010023d8b6eae842097920
phish2009-10-30d02t05.flac:288fe3465eb63b8165f1b4c8c50a9906
phish2009-10-30d02t06.flac:4c986e333cd06170e4b39d02db8412a1
phish2009-10-30d02t07.flac:2169d271ad440496c9e50b3bdfa6184b
phish2009-10-30d02t08.flac:bb2695283e4eeebf29c139037ae9b58c
phish2009-10-30d03t01.flac:f129e030c4767233288f648f8df7ed54
phish2009-10-30d03t02.flac:0df882e9ec892d84fa6d4abb0e70e657
phish2009-10-30d03t03.flac:96792db83d367155d4eed37331dff51c
phish2009-10-30d30t04.flac:1d6a553e2c5679704bd6837506d5b7dd

Shntool

length expanded size cdr WAVE problems fmt ratio filename
6:51.42 72599228 B --- -- ---xx flac 0.4782 phish2009-10-30d01t01.flac
9:16.40 98172524 B --- -- ---xx flac 0.4769 phish2009-10-30d01t02.flac
7:36.62 80584268 B --- -- ---xx flac 0.4756 phish2009-10-30d01t03.flac
5:51.06 61930556 B --- -- ---xx flac 0.4376 phish2009-10-30d01t04.flac
7:46.47 82312988 B --- -- ---xx flac 0.4682 phish2009-10-30d01t05.flac
13:16.69 140576732 B --- -- ---xx flac 0.4292 phish2009-10-30d01t06.flac
3:49.17 40435628 B --- -- ---xx flac 0.4085 phish2009-10-30d01t07.flac
2:16.09 24011612 B --- -- ---xx flac 0.4670 phish2009-10-30d01t08.flac
4:49.14 51012572 B --- -- ---xx flac 0.4884 phish2009-10-30d01t09.flac
6:47.05 71806604 B --- -- ---xx flac 0.4704 phish2009-10-30d01t10.flac
9:56.37 105221468 B --- -- ---xx flac 0.4414 phish2009-10-30d01t11.flac
17:28.05 184879004 B --- -- ---xx flac 0.4538 phish2009-10-30d02t01.flac
8:51.24 93724892 B --- -- ---xx flac 0.4591 phish2009-10-30d02t02.flac
13:07.57 138960908 B --- -- ---xx flac 0.4993 phish2009-10-30d02t03.flac
7:09.71 75842636 B --- -- ---xx flac 0.4734 phish2009-10-30d02t04.flac
11:44.44 124289132 B --- -- ---xx flac 0.4724 phish2009-10-30d02t05.flac
7:40.69 81306332 B --- -- ---xx flac 0.4774 phish2009-10-30d02t06.flac
3:12.72 34038188 B --- -- ---xx flac 0.4286 phish2009-10-30d02t07.flac
5:49.05 61575404 B --- -- ---xx flac 0.4493 phish2009-10-30d02t08.flac
12:42.32 134492108 B --- -- ---xx flac 0.4542 phish2009-10-30d03t01.flac
15:39.46 165747836 B --- -- ---xx flac 0.4356 phish2009-10-30d03t02.flac
4:44.54 50224652 B --- -- ---xx flac 0.4669 phish2009-10-30d03t03.flac
9:01.08 95451260 B --- -- ---xx flac 0.4965 phish2009-10-30d30t04.flac
195:30.10 2069196532 B 0.4614 (23 files)

Checksumsphish2009-10-30d01t01.flac:97d18ddc9a99a62d860a106aeb3352ff<br />
phish2009-10-30d01t02.flac:ccacf208bee7eaaa8716ccc2b00b014e<br />
phish2009-10-30d01t03.flac:85bfc0ec4c1e3a3f360e4cbeef21c640<br />
phish2009-10-30d01t04.flac:27e98becfa66b92345f3987e5dd4581a<br />
phish2009-10-30d01t05.flac:d61274ac50949608e7f6e7eba56255ce<br />
phish2009-10-30d01t06.flac:72ab77be449f0ded93ddff5f9cd0c4f9<br />
phish2009-10-30d01t07.flac:43c59e720c9eda45ef717d627f5bdab2<br />
phish2009-10-30d01t08.flac:a059e93b5721f8af9e3a2858e0395a1f<br />
phish2009-10-30d01t09.flac:f07624e1953e1be8a7075c2afb68dbf4<br />
phish2009-10-30d01t10.flac:d212b8c400c27cbbdbab6733f97f1e9f<br />
phish2009-10-30d01t11.flac:ab89b6a7ee7cd88b340a4181a58305da<br />
phish2009-10-30d02t01.flac:7b523c0df96012d5056de6138a30a319<br />
phish2009-10-30d02t02.flac:f75986e308678d3c013f35480b8f4ea6<br />
phish2009-10-30d02t03.flac:963905eff309e66baa52a83fab5e59c4<br />
phish2009-10-30d02t04.flac:1578fd4cb4010023d8b6eae842097920<br />
phish2009-10-30d02t05.flac:288fe3465eb63b8165f1b4c8c50a9906<br />
phish2009-10-30d02t06.flac:4c986e333cd06170e4b39d02db8412a1<br />
phish2009-10-30d02t07.flac:2169d271ad440496c9e50b3bdfa6184b<br />
phish2009-10-30d02t08.flac:bb2695283e4eeebf29c139037ae9b58c<br />
phish2009-10-30d03t01.flac:f129e030c4767233288f648f8df7ed54<br />
phish2009-10-30d03t02.flac:0df882e9ec892d84fa6d4abb0e70e657<br />
phish2009-10-30d03t03.flac:96792db83d367155d4eed37331dff51c<br />
phish2009-10-30d30t04.flac:1d6a553e2c5679704bd6837506d5b7dd
TypePhish
Last seederLast activity 23 days, 18:13:02 ago
Size910.59 MB (954827764 Bytes)
Added2009-10-31 06:08:53
Views0
Hits4578
Snatched2848 times
Upped byzmanatl
Num files
[See full list]
24 files
Peers
[See full list]
1 seeder, 0 leechers = 1 peer total

Add a comment

<< Prev      Next >>
1 - 20 | 21 - 40 | 41 - 46

Blues_Ken 2009-11-01 08:46:46
Thanks
brb2323 2009-11-01 13:29:32
thank you so much!!! i didnt expect these to be up so quick so its a real treat to get them already. can't wait for the acoustic set that's @ noon on Sunday!
sloth1976 2009-11-02 11:38:54
thank you very thanks.
Mtnman1969 2009-11-02 16:58:37
Thank you so much for your time, effort and fine, fine quality! -Thank your wife too!
wharfratjoe 2009-11-04 09:02:37
Thanks Zman!

one change to your notes:

07 - I Didn't Know *
patquin2 2009-11-07 00:56:03
I literally spent the entire weekend in the parked in driveway listening to sirius because there was no reception inside the house near the everglades. It is true fans like you that make these recordings special. The sound is stellar and you dedication to expertise is very much appreciated. The clarity is sick and it is obvious all had a great time. Sincerest Thanks for all 3 days.

1 - 20 | 21 - 40 | 41 - 46
<< Prev      Next >>

Add a comment


http://etree.org : http://db.etree.org : http://forums.etree.org : http://wiki.etree.org : Legal : RSS Feed

Contents designed & maintained by the etree.org volunteers
1998-2014, etree.org, except where noted. All Rights Reserved.
Read our terms of service and privacy guidelines