bt.etree.org
etree.org Community Bittorrent Tracker
ArtistGovt Mule
ShowGov't Mule Christmas Pre-Jam Orange Peel Asheville, North Carolina 12/11/2009
Report this as
non-Trade-Friendly
Email us
Torrentgovtmule2009-12-11.flac16.torrent (click to download)
Downloads asgovtmule2009-12-11.flac16
Info hashca79aa0d2c10b847a41241c9b1ab61f6ec502f53
db linkhttp://db.etree.org/shn/103436 | Show | Source
DescriptionGov't Mule
Warren Haynes Christmas Pre-Jam
Orange Peel
Asheville, North Carolina
12/11/2009

Source: Schoeps 4V'S(din)>Lunatec V2>Sound Devices 722 (24/48)
Location: FOB/DLFC 40' From Stage, 5 1/2' High
DSP: Sound Devices 722>Sound Forge 9.0>CD Wave>flac(16)
Recorded By: Manofz
Seeded By: Manofz

Disc I

01 Tuning
02 Railroad Boy >
03 Monday Morning Meltdown >
04 *#Feel Like Breakin' Up Somebody's Home
05 *#Politician
06 Inside Outside Woman Blues
07 @^Southern Man
Encore:
08 Bring Them Back/Tuning
09 Brokedown On The Brazos
Warren Haynes Solo Acoustic:
10 Introduction By Dennis Jones and Martin Anderson
11 Madman Across The Water
12 Forever More
13 Interview With Martin Anderson

* With Ron Holloway On Saxaphone
# With Brad Whitford On Guitar
@ With Dave Johnson on Percussion
^ With Jackie Green On Guitar and Vocals

Flac Fingerprint

govtmule2009-12-11d01t01.flac:3ccb74f23015729841caea10ce6034ca
govtmule2009-12-11d01t02.flac:557f217872e18d8b13c57af97aaa9619
govtmule2009-12-11d01t03.flac:38d25250b17e5a76b3a609208a0c093d
govtmule2009-12-11d01t04.flac:4a79e926f3b2dcf90b432eec7d099826
govtmule2009-12-11d01t05.flac:aacb4f0806ad1f703d4f7edb4285e783
govtmule2009-12-11d01t06.flac:bd5062d032d5d6d391dfb8ae3733c3bf
govtmule2009-12-11d01t07.flac:dd8875a0fc35094c8b6c4cc56afd479c
govtmule2009-12-11d01t08.flac:6f90f35b2e5aaa30f9782dd711e479b6
govtmule2009-12-11d01t09.flac:a1b93cdc2660bd3634cd083f3fd42246
govtmule2009-12-11d01t10.flac:10dd52fabbf636a69a9e8c1a51819605
govtmule2009-12-11d01t11.flac:c4e8513eedb2eba553766a7d40009984
govtmule2009-12-11d01t12.flac:8b886ac1b7b3ccfd6f637c9dc9770429
govtmule2009-12-11d01t13.flac:a0cb04358e3d8240d701394d1221f03a

Shntool

length expanded size cdr WAVE problems fmt ratio filename
1:15.03 13237100 B --- -- ---xx flac 0.3851 govtmule2009-12-11d01t01.flac
5:43.41 60601676 B --- -- ---xx flac 0.5103 govtmule2009-12-11d01t02.flac
8:02.02 85029548 B --- -- ---xx flac 0.5103 govtmule2009-12-11d01t03.flac
9:42.44 102768332 B --- -- ---xx flac 0.5364 govtmule2009-12-11d01t04.flac
9:03.35 95867564 B --- -- ---xx flac 0.5141 govtmule2009-12-11d01t05.flac
9:55.22 105009788 B --- -- ---xx flac 0.4960 govtmule2009-12-11d01t06.flac
9:09.48 96956540 B --- -- ---xx flac 0.5417 govtmule2009-12-11d01t07.flac
1:44.16 18383276 B --- -- ---xx flac 0.3916 govtmule2009-12-11d01t08.flac
6:34.26 69562796 B --- -- ---xx flac 0.5067 govtmule2009-12-11d01t09.flac
1:05.30 11536604 B --- -- ---xx flac 0.4662 govtmule2009-12-11d01t10.flac
4:31.58 47940860 B --- -- ---xx flac 0.4814 govtmule2009-12-11d01t11.flac
3:23.49 35924492 B --- -- ---xx flac 0.4769 govtmule2009-12-11d01t12.flac
8:34.42 90768428 B --- -- ---xx flac 0.4268 govtmule2009-12-11d01t13.flac
78:45.41 833587004 B 0.4981 (13 files)



Checksumsgovtmule2009-12-11d01t01.flac:3ccb74f23015729841caea10ce6034ca<br />
govtmule2009-12-11d01t02.flac:557f217872e18d8b13c57af97aaa9619<br />
govtmule2009-12-11d01t03.flac:38d25250b17e5a76b3a609208a0c093d<br />
govtmule2009-12-11d01t04.flac:4a79e926f3b2dcf90b432eec7d099826<br />
govtmule2009-12-11d01t05.flac:aacb4f0806ad1f703d4f7edb4285e783<br />
govtmule2009-12-11d01t06.flac:bd5062d032d5d6d391dfb8ae3733c3bf<br />
govtmule2009-12-11d01t07.flac:dd8875a0fc35094c8b6c4cc56afd479c<br />
govtmule2009-12-11d01t08.flac:6f90f35b2e5aaa30f9782dd711e479b6<br />
govtmule2009-12-11d01t09.flac:a1b93cdc2660bd3634cd083f3fd42246<br />
govtmule2009-12-11d01t10.flac:10dd52fabbf636a69a9e8c1a51819605<br />
govtmule2009-12-11d01t11.flac:c4e8513eedb2eba553766a7d40009984<br />
govtmule2009-12-11d01t12.flac:8b886ac1b7b3ccfd6f637c9dc9770429<br />
govtmule2009-12-11d01t13.flac:a0cb04358e3d8240d701394d1221f03a<br />
TypeGovt Mule
Last seederLast activity 23:38 ago
Size395.97 MB (415207895 Bytes)
Added2009-12-12 02:55:22
Views0
Hits1501
Snatched946 times
Upped byzmanatl
Num files
[See full list]
14 files
Peers
[See full list]
2 seeders, 0 leechers = 2 peers total

Add a comment

<< Prev      Next >>
1 - 20 | 21 - 29

georgeforman 2009-12-12 21:23:49
oh yea, another year almost done
and it ends as it started
with w\Warren and the Mule!
mulemilk 2009-12-12 21:31:15
Thank you Z man. You continue to get it done like it's some kind of unbridled passion!
jsullivan 2009-12-12 22:42:52
thanks a lot z-man. you've got the gift man...keep on keeping on...
allmyfriends25 2009-12-12 22:54:52
Just wondering, but did anyone record the Counting Crows set from last night? Thanks
purpletornado 2009-12-13 00:05:22
Thanks for the great set of Mule. A lot of good music last night including the Counting Crows. Any chance we'll get the opportunity to download that set as well?
ktownjamman 2009-12-13 13:48:46
whered the 12/12 show go?
Tomahawk-Kid 2009-12-14 04:22:08
Thank you!
dano1881 2010-01-10 12:09:38
i am just gonna go ahead and assume that request for the countring crows show was a joke... lmao!
Lilraven 2010-01-13 16:55:09
Thank you.

1 - 20 | 21 - 29
<< Prev      Next >>

Add a comment


http://etree.org : http://db.etree.org : http://forums.etree.org : http://wiki.etree.org : Legal : RSS Feed

Contents designed & maintained by the etree.org volunteers
1998-2014, etree.org, except where noted. All Rights Reserved.
Read our terms of service and privacy guidelines