bt.etree.org
etree.org Community Bittorrent Tracker
Artistmoe.
Showmoe. Christmas Pre-Jam Orange Peel Asheville, North Carolina 12/11/2009
Report this as
non-Trade-Friendly
Email us
Torrentmoe2009-12-11.flac16.torrent (click to download)
Downloads asmoe2009-12-11.flac16
Info hashd213320af8614dca9fc9c54a45efe9518fd45d47
db linkhttp://db.etree.org/shn/104898 | Show | Source
Descriptionmoe.
Warren Haynes Christmas Pre-Jam
Orange Peel
Asheville, North Carolina
12/11/2009

Source: Schoeps 4V'S(din)>Lunatec V2>Sound Devices 722 (24/48)
Location: FOB/DLFC 40' From Stage, 5 1/2' High
DSP: Sound Devices 722>Sound Forge 9.0>CD Wave>flac(16)
Recorded By: Manofz
Seeded By: Manofz

Disc I

01 Introduction By Martin Anderson
02 Akimbo
03 She
04 *#Opium
05 @^32 Things

* With Danny Louis On Keyboards
# With Mike Barnes On Guitar
@ With Jeff Austin On MAndolin
^ With Allie Krall On Fiddle

Flac Fingerprint

moe2009-12-11d01t01.flac:5a0c86f20aa1494a6a9d9ae12f20b0a8
moe2009-12-11d01t02.flac:bb40938b2f94187aaf399554795691b4
moe2009-12-11d01t03.flac:ae03d8378a67b1d4d527abf196dcff20
moe2009-12-11d01t04.flac:2da542f31b87f917d9994ce8c2691f22
moe2009-12-11d01t05.flac:2eae88b2604341b714cc7c34f94d3ec0

Shntool

length expanded size cdr WAVE problems fmt ratio filename
0:35.16 6211676 B --- -- ---xx flac 0.3931 moe2009-12-11d01t01.flac
6:59.18 73953980 B --- -- ---xx flac 0.5131 moe2009-12-11d01t02.flac
16:45.10 177305564 B --- -- ---xx flac 0.5107 moe2009-12-11d01t03.flac
17:11.25 181927244 B --- -- ---xx flac 0.5039 moe2009-12-11d01t04.flac
14:10.14 149972972 B --- -- ---xx flac 0.5369 moe2009-12-11d01t05.flac
55:41.08 589371436 B 0.5143 (5 files)




Checksumsmoe2009-12-11d01t01.flac:5a0c86f20aa1494a6a9d9ae12f20b0a8
moe2009-12-11d01t02.flac:bb40938b2f94187aaf399554795691b4
moe2009-12-11d01t03.flac:ae03d8378a67b1d4d527abf196dcff20
moe2009-12-11d01t04.flac:2da542f31b87f917d9994ce8c2691f22
moe2009-12-11d01t05.flac:2eae88b2604341b714cc7c34f94d3ec0
Typemoe.
Last seederLast activity 12:18 ago
Size289.08 MB (303127512 Bytes)
Added2009-12-12 04:02:21
Views0
Hits981
Snatched512 times
Upped byzmanatl
Num files
[See full list]
6 files
Peers
[See full list]
0 seeders, 1 leecher = 1 peer total

Add a comment

Tomahawk-Kid 2009-12-12 04:30:07
Thank you!
raimax 2009-12-12 04:44:13
thank you
africolaman 2009-12-12 07:19:52
Thanks.
bigdaddybflo 2009-12-12 08:42:48
give me moe moe moe!!! thanks steve for the love
Blues_Ken 2009-12-12 11:14:43
Thanks
pmforbin 2009-12-12 15:36:32
Thanks, Z.
allmyfriends25 2009-12-12 22:54:18
Just wondering, but did anyone record the Counting Crows set from last night? Thanks
ncknottypine 2009-12-13 11:43:27
thanks Z!!! My heart is broken that we were not there..... We just could not get away this weekend!

Add a comment


http://etree.org : http://db.etree.org : http://forums.etree.org : http://wiki.etree.org : Legal : RSS Feed

Contents designed & maintained by the etree.org volunteers
1998-2014, etree.org, except where noted. All Rights Reserved.
Read our terms of service and privacy guidelines