bt.etree.org
etree.org Community Bittorrent Tracker
ArtistCornmeal
ShowCornmeal Christmas Pre-Jam Orange Peel Asheville, North Carolina 12/11/2009
Report this as
non-Trade-Friendly
Email us
Torrentcornmeal2009-12-11.flac16.torrent (click to download)
Downloads ascornmeal2009-12-11.flac16
Info hash91400c132bb1cc379aac3507169ad5ccaf7ba782
db linkhttp://db.etree.org/shn/104020 | Show | Source
DescriptionCornmeal
Warren Haynes Christmas Pre-Jam
Orange Peel
Asheville, North Carolina
12/11/2009

Source: Schoeps 4V'S(din)>Lunatec V2>Sound Devices 722 (24/48)
Location: FOB/DLFC 40' From Stage, 5 1/2' High
DSP: Sound Devices 722>Sound Forge 9.0>CD Wave>flac(16)
Recorded By: Manofz
Seeded By: Manofz

Disc I

01 Introduction By Martin Anderson
02 It's A Long Road
03 Better Off This Way
04 *River Gag
05 *Jenny In The Middle

* With Jeff Austin On Mandolin

Flac Fingerprint file

cornmeal2009-12-11d01t01.flac:7aef3099ed77fa5d55c4a4a784e31111
cornmeal2009-12-11d01t02.flac:8a694184cd7d604fbb0978cd3ba4c8eb
cornmeal2009-12-11d01t03.flac:718e260d9350a584774a8a37cbcce4be
cornmeal2009-12-11d01t04.flac:117b9fd9588dbb2c0a53858529690e6e
cornmeal2009-12-11d01t05.flac:dc0ccd3c42884c24cb7150950b2172de

Shntool

length expanded size cdr WAVE problems fmt ratio filename
1:19.36 14020316 B --- -- ---xx flac 0.3984 cornmeal2009-12-11d01t01.flac
2:54.26 30754796 B --- -- ---xx flac 0.5870 cornmeal2009-12-11d01t02.flac
6:09.23 65145740 B --- -- ---xx flac 0.5236 cornmeal2009-12-11d01t03.flac
11:18.69 119761532 B --- -- ---xx flac 0.5509 cornmeal2009-12-11d01t04.flac
2:57.59 31361612 B --- -- ---xx flac 0.5775 cornmeal2009-12-11d01t05.flac
24:39.63 261043996 B 0.5433 (5 files)






Checksumscornmeal2009-12-11d01t01.flac:7aef3099ed77fa5d55c4a4a784e31111
cornmeal2009-12-11d01t02.flac:8a694184cd7d604fbb0978cd3ba4c8eb
cornmeal2009-12-11d01t03.flac:718e260d9350a584774a8a37cbcce4be
cornmeal2009-12-11d01t04.flac:117b9fd9588dbb2c0a53858529690e6e
cornmeal2009-12-11d01t05.flac:dc0ccd3c42884c24cb7150950b2172de
Visibleno (dead)
TypeCornmeal
Last seederLast activity 159 days, 10:34:52 ago
Size135.27 MB (141837547 Bytes)
Added2009-12-12 09:55:14
Views0
Hits576
Snatched268 times
Upped byzmanatl
Num files
[See full list]
6 files
Peers
[See full list]
0 seeders, 0 leechers = 0 peers total

Add a comment

raimax 2009-12-12 10:10:55
thank you
Tomahawk-Kid 2009-12-12 11:00:24
Thank you! The Mule and moe. sets were terrific!
phishy12 2009-12-12 11:18:28
thanks Z! how was it with JA playing with cornmeal??
zmanatl 2009-12-12 11:55:19
You and Jamie would have loved it! Hope he is on his way for tonight! You too! YMSB 2 nights here in February!
LAStubbe 2009-12-12 13:10:40
Looks good. Thanks!
africolaman 2009-12-13 03:38:31
Thanks once more.
Blues_Ken 2009-12-13 08:53:45
Thanks
ncknottypine 2009-12-13 11:40:01
thanks, Z!!! Sorry we missed this one.........:(:(:(.

Add a comment


http://etree.org : http://db.etree.org : http://forums.etree.org : http://wiki.etree.org : Legal : RSS Feed

Contents designed & maintained by the etree.org volunteers
1998-2014, etree.org, except where noted. All Rights Reserved.
Read our terms of service and privacy guidelines