bt.etree.org
etree.org Community Bittorrent Tracker
ArtistGeorge Porter, Jr. & Runnin' P
ShowGeorge Porter Jr. and the Funk Band Christmas Pre-Jam Orange Peel Asheville, North Carolina 12/11/2009 (Schoeps)
Report this as
non-Trade-Friendly
Email us
Torrentgeorgeporterjr2009-12-11.flac16.torrent (click to download)
Downloads asgeorgeporterjr2009-12-11.flac16
Info hash72fd86e7219e9a641f21ae10fda866f6c5935969
db linkhttp://db.etree.org/shn/122705 | Show | Source
DescriptionGeorge Porter Jr. and the Funk Band
Warren Haynes Christmas Pre-Jam
Orange Peel
Asheville, North Carolina
12/11/2009

Source: Schoeps 4V'S(din)>Lunatec V2>Sound Devices 722 (24/48)
Location: FOB/DLFC 40' From Stage, 5 1/2' High
DSP: Sound Devices 722>Sound Forge 9.0>CD Wave>flac(16)
Recorded By: Manofz
Seeded By: Manofz

Disc I

01 Introduction By Martin Anderson
02 Look A Py Py >
03 Africa
04 *Everbody Loves a Winner
05 #Be all Right

* With William Bell On Vocals
# With Warren Haynes

GEORGE PORTER JR. - Bass and Vocals
ADAM DEITCH - Drums
ERIC KRASNO - Guitar
RON HOLLOWAY - Saxophone
TROY "TROMBONE SHORTY" ANDRES - Trombone
CRAIG SORRELLS - Trumpet

Flac Fingerprint

georgeporterjr2009-12-11d01t01.flac:cb1420ca4f499f98ccecfaeabd22e56b
georgeporterjr2009-12-11d01t02.flac:20af5c148e0eb9e1af5ed0a09ba6f32e
georgeporterjr2009-12-11d01t03.flac:6bf59ba5fc02225f3243f89e59e86c14
georgeporterjr2009-12-11d01t04.flac:7679e91564a6273a758c4a81a0a2d665
georgeporterjr2009-12-11d01t05.flac:a1734bce111cc681b9337d323e76f65a

Shntool

length expanded size cdr WAVE problems fmt ratio filename
0:30.65 5444924 B --- -- ---xx flac 0.3453 georgeporterjr2009-12-11d01t01.flac
5:43.57 60639308 B --- -- ---xx flac 0.5769 georgeporterjr2009-12-11d01t02.flac
9:00.24 95312492 B --- -- ---xx flac 0.5370 georgeporterjr2009-12-11d01t03.flac
10:58.57 116205308 B --- -- ---xx flac 0.4325 georgeporterjr2009-12-11d01t04.flac
6:47.46 71903036 B --- -- ---xx flac 0.5750 georgeporterjr2009-12-11d01t05.flac
33:01.24 349505068 B 0.5140 (5 files)


Checksumsgeorgeporterjr2009-12-11d01t01.flac:cb1420ca4f499f98ccecfaeabd22e56b<br />
georgeporterjr2009-12-11d01t02.flac:20af5c148e0eb9e1af5ed0a09ba6f32e<br />
georgeporterjr2009-12-11d01t03.flac:6bf59ba5fc02225f3243f89e59e86c14<br />
georgeporterjr2009-12-11d01t04.flac:7679e91564a6273a758c4a81a0a2d665<br />
georgeporterjr2009-12-11d01t05.flac:a1734bce111cc681b9337d323e76f65a
TypeGeorge Porter, Jr. & Runnin' P
Last seederLast activity 14:01 ago
Size171.33 MB (179649894 Bytes)
Added2009-12-15 03:00:47
Views0
Hits901
Snatched326 times
Upped byzmanatl
Num files
[See full list]
6 files
Peers
[See full list]
0 seeders, 1 leecher = 1 peer total

Add a comment

Tomahawk-Kid 2009-12-15 04:06:34
Thank you!
Blues_Ken 2009-12-15 06:56:05
Thanks

Add a comment


http://etree.org : http://db.etree.org : http://forums.etree.org : http://wiki.etree.org : Legal : RSS Feed

Contents designed & maintained by the etree.org volunteers
1998-2014, etree.org, except where noted. All Rights Reserved.
Read our terms of service and privacy guidelines