bt.etree.org
etree.org Community Bittorrent Tracker
ArtistOther
ShowChristmas Jam Band Christmas Pre-Jam Asheville, North Carolina 12/11/2009 (Schoeps)
Report this as
non-Trade-Friendly
Email us
Torrentxmasjamband2009-12-11.flac16.torrent (click to download)
Downloads asxmasjamband2009-12-11.flac16
Info hashecf3e91f1277fe0c9895a0e076669dd2b63e6f2b
DescriptionChristmas Jam Band
Warren Haynes Christmas Pre-Jam
Orange Peel
Asheville, North Carolina
12/11/2009

Source: Schoeps 4V'S(din)>Lunatec V2>Sound Devices 722 (24/48)
Location: FOB/DLFC 40' From Stage, 5 1/2' High
DSP: Sound Devices 722>Sound Forge 9.0>CD Wave>flac(16)
Recorded By: Manofz
Seeded By: Manofz

Disc I

01 Introduction By Uncle Dave
02 I Ain't Waitin' On Tomorrow
03 Jumpin' Jack Flash
04 *#Taxman
05 *#@Ohio

* With Jackie Greene on Guitar and Vocals
# With Brad Whitford on Guitar
@ With Warren Haynes on Vocals

Kevn Kinney - Guitar and Vocals
Audley Freed - Guitar
Robert Kearns - Bass
Fred Eltringham - Drums
Ron Holloway - Saxaphone

Flac Fingerprint

xmasjamband2009-12-11d01t01.flac:82fe76aff8771768a81f82d17b320076
xmasjamband2009-12-11d01t02.flac:9e31881a1ba563dc5eb22c900a764538
xmasjamband2009-12-11d01t03.flac:04a4255076f97962521712e0e265da22
xmasjamband2009-12-11d01t04.flac:4c8b36d7ba9216030c1ac6930fd4cdb5
xmasjamband2009-12-11d01t05.flac:931c23d34c8ca40d43ff8517a8275012

Shntool

length expanded size cdr WAVE problems fmt ratio filename
2:23.33 25302860 B --- -- ---xx flac 0.3692 xmasjamband2009-12-11d01t01.flac
7:35.34 80342012 B --- -- ---xx flac 0.4726 xmasjamband2009-12-11d01t02.flac
6:15.64 66300572 B --- -- ---xx flac 0.4335 xmasjamband2009-12-11d01t03.flac
11:31.11 121918316 B --- -- ---xx flac 0.4632 xmasjamband2009-12-11d01t04.flac
9:05.30 96208604 B --- -- ---xx flac 0.4824 xmasjamband2009-12-11d01t05.flac
36:51.22 390072364 B 0.4587 (5 files)


Checksumsxmasjamband2009-12-11d01t01.flac:82fe76aff8771768a81f82d17b320076
xmasjamband2009-12-11d01t02.flac:9e31881a1ba563dc5eb22c900a764538
xmasjamband2009-12-11d01t03.flac:04a4255076f97962521712e0e265da22
xmasjamband2009-12-11d01t04.flac:4c8b36d7ba9216030c1ac6930fd4cdb5
xmasjamband2009-12-11d01t05.flac:931c23d34c8ca40d43ff8517a8275012
TypeOther
Last seederLast activity 31:25 ago
Size170.65 MB (178940597 Bytes)
Added2009-12-15 03:35:17
Views0
Hits743
Snatched367 times
Upped byzmanatl
Num files
[See full list]
6 files
Peers
[See full list]
1 seeder, 0 leechers = 1 peer total

Add a comment

Tomahawk-Kid 2009-12-15 04:07:00
...and thank you for this one too!
Blues_Ken 2009-12-15 07:03:55
Thanks
davis1 2009-12-15 09:50:25
do you happen to have dj logic's opening set at the xmas jam
chubbyh45042 2009-12-16 18:02:45
thanks man
have a great holiday
peace
chubby
Lilraven 2010-01-13 16:06:29
Thanks.

Add a comment


http://etree.org : http://db.etree.org : http://forums.etree.org : http://wiki.etree.org : Legal : RSS Feed

Contents designed & maintained by the etree.org volunteers
1998-2014, etree.org, except where noted. All Rights Reserved.
Read our terms of service and privacy guidelines