bt.etree.org
etree.org Community Bittorrent Tracker
ArtistOther
ShowAni DiFranco Christmas Pre-Jam Orange Peel Asheville, North Carolina 12/11/2009 (Schoeps)
Report this as
non-Trade-Friendly
Email us
Torrentanidifranco2009-12-11.flac16.torrent (click to download)
Downloads asanidifranco2009-12-11.flac16
Info hashdf5bd6f126552f90f77ebf90657fc8f3d1b9b0d8
DescriptionAni DiFranco
Warren Haynes Christmas Pre-Jam
Orange Peel
Asheville, North Carolina
12/11/2009

Source: Schoeps 4V'S(din)>Lunatec V2>Sound Devices 722 (24/48)
Location: FOB/DLFC 40' From Stage, 5 1/2' High
DSP: Sound Devices 722>Sound Forge 9.0>CD Wave>flac(16)
Recorded By: Manofz
Seeded By: Manofz

Disc I

01 Introduction By Martin Anderson
02 Swan Dive
03 All of This
04 *Which Side are You On
05 *#Freight Train w/ Jeff Austin
06 *#@Overlap
07 Outro Announcement By Martin Anderson

* With Warren Haynes On Guitar
# With Jeff Austin On Mandolin
@ With Entire George Porter Jr.'s Funk Band (George Porter Jr., Nigel Hall, Craig Sorrells, Ron Holloway, Troy "Trombone Shorty" Andrews, Adam Deitch And Eric Krasno)

Flac Fingerprint

anniedefranco2009-12-11d01t01.flac:627d871558aa98531acefb2f9f81e652
anniedefranco2009-12-11d01t02.flac:5b48b486ec646f635325fe5a4bc34475
anniedefranco2009-12-11d01t03.flac:6ceeea8276467ffebc57be4492e7c63f
anniedefranco2009-12-11d01t04.flac:947359edc335415bd8529177e24259eb
anniedefranco2009-12-11d01t05.flac:27d26d4f8d7672d7b114a676a8ee9be9
anniedefranco2009-12-11d01t06.flac:e6ae979ad23006ea112011c835442df8
anniedefranco2009-12-11d01t07.flac:1dcfa122d117ff5980ab8e0a0a55ef5c

Shntool

length expanded size cdr WAVE problems fmt ratio filename
0:56.58 10014860 B --- -- ---xx flac 0.4256 anniedefranco2009-12-11d01t01.flac
6:25.11 67939916 B --- -- ---xx flac 0.4260 anniedefranco2009-12-11d01t02.flac
3:52.34 41004812 B --- -- ---xx flac 0.4346 anniedefranco2009-12-11d01t03.flac
7:25.62 78643868 B --- -- ---xx flac 0.4378 anniedefranco2009-12-11d01t04.flac
4:37.52 48985148 B --- -- ---xx flac 0.4101 anniedefranco2009-12-11d01t05.flac
8:14.03 87148700 B --- -- ---xx flac 0.5208 anniedefranco2009-12-11d01t06.flac
1:25.12 15022268 B --- -- ---xx flac 0.4431 anniedefranco2009-12-11d01t07.flac
32:57.07 348759572 B 0.4519 (7 files)





Checksumsanniedefranco2009-12-11d01t01.flac:627d871558aa98531acefb2f9f81e652<br />
anniedefranco2009-12-11d01t02.flac:5b48b486ec646f635325fe5a4bc34475<br />
anniedefranco2009-12-11d01t03.flac:6ceeea8276467ffebc57be4492e7c63f<br />
anniedefranco2009-12-11d01t04.flac:947359edc335415bd8529177e24259eb<br />
anniedefranco2009-12-11d01t05.flac:27d26d4f8d7672d7b114a676a8ee9be9<br />
anniedefranco2009-12-11d01t06.flac:e6ae979ad23006ea112011c835442df8<br />
anniedefranco2009-12-11d01t07.flac:1dcfa122d117ff5980ab8e0a0a55ef5c
TypeOther
Last seederLast activity 19 days, 19:05:19 ago
Size150.29 MB (157595700 Bytes)
Added2009-12-15 11:43:41
Views0
Hits867
Snatched310 times
Upped byzmanatl
Num files
[See full list]
8 files
Peers
[See full list]
0 seeders, 1 leecher = 1 peer total

Add a comment

Tomahawk-Kid 2009-12-15 16:45:53
Thank you, Sir!
Blues_Ken 2009-12-15 17:17:20
Thanks
Dear Mr. Fantasy 2009-12-16 23:31:42
THANK YOU!!
biker 2009-12-17 17:43:59
thanks! I was there and it was a great show!

Add a comment


http://etree.org : http://db.etree.org : http://forums.etree.org : http://wiki.etree.org : Legal : RSS Feed

Contents designed & maintained by the etree.org volunteers
1998-2014, etree.org, except where noted. All Rights Reserved.
Read our terms of service and privacy guidelines