bt.etree.org
etree.org Community Bittorrent Tracker
ArtistCounting Crows
ShowCounting Crows Christmas Pre-Jam Orange Peel Asheville, North Carolina 12/11/2009 (Schoeps)
Report this as
non-Trade-Friendly
Email us
Torrentcountingcrows2009-12-11.flac16.torrent (click to download)
Downloads ascountingcrows2009-12-11.flac16
Info hashd0abc3d0ee17d5329fe6ea3c5732174619f0f3ae
db linkhttp://db.etree.org/shn/105078 | Show | Source
DescriptionCounting Crows
Warren Haynes Christmas Pre-Jam
Orange Peel
Asheville, North Carolina
12/11/2009

Source: Schoeps 4V'S(din)>Lunatec V2>Sound Devices 722 (24/48)
Location: FOB/DLFC 40' From Stage, 5 1/2' High
DSP: Sound Devices 722>Sound Forge 9.0>CD Wave>flac(16)
Recorded By: Manofz
Seeded By: Manofz

Disc I

01 Introduction By Uncle Dave
02 Girl From The North
03 Hangin Tree
04 Richard Manuel Is Dead
05 Friend of the Devil
06 *You aint Goin Nowhere
07 *Sullivan St
08 Meet on the Ledge
09 Rain King >
10 Thunder Road >
11 Rain King

* With Warren Haynes On Guitar

Flac Fingerprint

countingcrowes2009-12-11d01t01.flac:27c475910f59e8847f4b61d51e970fa9
countingcrowes2009-12-11d01t02.flac:d7a2c1177408ac46192503c449ffd3fb
countingcrowes2009-12-11d01t03.flac:f8b38f9265cf0e07edfa3178a64b6d70
countingcrowes2009-12-11d01t04.flac:c6b63cdbe42ef109f1960647ecdad14a
countingcrowes2009-12-11d01t05.flac:42b438b200fc36215734be0ed86a1f6c
countingcrowes2009-12-11d01t06.flac:fb056fd781eb617b8d6bf4154bfc06c5
countingcrowes2009-12-11d01t07.flac:dd2217bdc452f4f2e6c9cd4bb17a30a9
countingcrowes2009-12-11d01t08.flac:c4e837c5f1f830166695c249bcb20b07
countingcrowes2009-12-11d01t09.flac:66029a43fd0979f05e12da09e4d430ad
countingcrowes2009-12-11d01t10.flac:5bc9f28f6ed0e0e8abcde2d912abe452
countingcrowes2009-12-11d01t11.flac:8a72dbb7500f8295642e5cbdec631232

Shntool

length expanded size cdr WAVE problems fmt ratio filename
1:25.06 15008156 B --- -- ---xx flac 0.3976 countingcrowes2009-12-11d01t01.flac
5:49.04 61573052 B --- -- ---xx flac 0.3779 countingcrowes2009-12-11d01t02.flac
3:59.69 42321932 B --- -- ---xx flac 0.5690 countingcrowes2009-12-11d01t03.flac
6:05.15 64421324 B --- -- ---xx flac 0.4882 countingcrowes2009-12-11d01t04.flac
5:34.39 59009372 B --- -- ---xx flac 0.4803 countingcrowes2009-12-11d01t05.flac
7:30.04 79389452 B --- -- ---xx flac 0.5123 countingcrowes2009-12-11d01t06.flac
11:50.08 125262860 B --- -- ---xx flac 0.4895 countingcrowes2009-12-11d01t07.flac
4:02.39 42780572 B --- -- ---xx flac 0.5050 countingcrowes2009-12-11d01t08.flac
3:16.34 34654412 B --- -- ---xx flac 0.5821 countingcrowes2009-12-11d01t09.flac
3:32.61 37540316 B --- -- ---xx flac 0.4719 countingcrowes2009-12-11d01t10.flac
3:24.65 36138524 B --- -- ---xx flac 0.5448 countingcrowes2009-12-11d01t11.flac
56:30.44 598099972 B 0.4920 (11 files)




Checksumscountingcrowes2009-12-11d01t01.flac:27c475910f59e8847f4b61d51e970fa9
countingcrowes2009-12-11d01t02.flac:d7a2c1177408ac46192503c449ffd3fb
countingcrowes2009-12-11d01t03.flac:f8b38f9265cf0e07edfa3178a64b6d70
countingcrowes2009-12-11d01t04.flac:c6b63cdbe42ef109f1960647ecdad14a
countingcrowes2009-12-11d01t05.flac:42b438b200fc36215734be0ed86a1f6c
countingcrowes2009-12-11d01t06.flac:fb056fd781eb617b8d6bf4154bfc06c5
countingcrowes2009-12-11d01t07.flac:dd2217bdc452f4f2e6c9cd4bb17a30a9
countingcrowes2009-12-11d01t08.flac:c4e837c5f1f830166695c249bcb20b07
countingcrowes2009-12-11d01t09.flac:66029a43fd0979f05e12da09e4d430ad
countingcrowes2009-12-11d01t10.flac:5bc9f28f6ed0e0e8abcde2d912abe452
countingcrowes2009-12-11d01t11.flac:8a72dbb7500f8295642e5cbdec631232
TypeCounting Crows
Last seederLast activity 13:10 ago
Size280.64 MB (294274460 Bytes)
Added2009-12-15 12:29:47
Views0
Hits2276
Snatched519 times
Upped byzmanatl
Num files
[See full list]
12 files
Peers
[See full list]
1 seeder, 0 leechers = 1 peer total

Add a comment

raimax 2009-12-15 13:31:04
thank you
Tomahawk-Kid 2009-12-15 16:46:20
Thank you - AGAIN!
Blues_Ken 2009-12-15 17:18:36
Thanks
wkl_taper 2009-12-15 19:57:14
So, when does the "Being Z-man" reality series start to air? If one isn't in the works, some TV Exec should take note NOW! I know I'd watch it, At least it would have some good music and good food (and White Castle sliders)
Angelemerald 2009-12-15 20:03:21
Thank you Zman, I've been waiting for this one. :-)
bigdaddybflo 2009-12-15 20:06:44
thanks z for the music you provide to us all, go, you animal, go
Ryan011235 2012-07-04 19:01:41
Thank you!

Add a comment


http://etree.org : http://db.etree.org : http://forums.etree.org : http://wiki.etree.org : Legal : RSS Feed

Contents designed & maintained by the etree.org volunteers
1998-2014, etree.org, except where noted. All Rights Reserved.
Read our terms of service and privacy guidelines