bt.etree.org
etree.org Community Bittorrent Tracker
ArtistOther
ShowDonna Hopkins & Friends Zuffy's Place Atlanta, Georgia 2/23/2010 (Schoeps CCM4V'S FOB)
Report this as
non-Trade-Friendly
Email us
Torrentdonna2010-02-23.flac16.torrent (click to download)
Downloads asdonna2010-02-23.flac16
Info hashc4dcdf5e88c748dbdfd3e9c883e6c5daed913d1a
DescriptionDonna Hopkins & Friends
Zuffy's Place
Atlanta, Georgia
2/23/2010

Source: Schoeps CCM4V'S(din)>Lunatec V2>Benchmark AD2K>
Sound Devices 722 (24/48)
FOB/DFC/KFC/ZFC/AARP 8' From Stage, 7' High
DSP: Sound Devices 722>Sound Forge 9.0>CD Wave>flac(16)
Recorded By: Z-Man
Seeded By: Z-Man

Disc I 1st Set

01 *?
02 Banter
03 *Everything Money Can't Buy
04 *Dirty Alabama Road
05 Banter
06 *I Will Do Anything
07 Banter
08 #Don't Ask Why

Disc II 2nd Set

01 #@^Music Keeps On Comin' Through
02 #@^Holding My Heart
03 #@^+Broken Record
04 #@^+%I Wanna Love You >
05 #@^+%All You Want, Drinkin' Alcohol >
06 #@^+%?
07 #@^+%?The Sorest Eyes
08 *@+^Whichever Way The Wind Blows
09 Banter/Tuning
10 *@^+$Your Love Is Slippin' Away

Disc III 3rd Set

01 #@%Whiskey Drinkin' Women
02 *#@%Carry Me So Far Away
03 #@^%Medicine Trail
04 *#@^+&Do What You Want
05 *@^+&Keep Talkin'
06 @^+$&Nothin' Left To Lose
07 @+&Jeopardy
08 @+$&The Street Beater
09 *#@+$&Won't You Meet Me In The River
4th Set:
10 *+!Tuning
11 *+!House Of Blues
12 *+$!Midnight Train

The First Set Was Donna Solo

* With Donna Hopkins
# With Holly Howell
@ With Michael Hurwitz
^ With Ben Farmer
+ With Reese On Drums and Steve On Bass
% With Tim Cruz
$ With Will Gordon On Harmonica
& With Andrew On Guitar
! With Steve Nunez On Guitar and Vocals

Flac Fingerprint file

donna2010-02-23d01t01.flac:8977f8457be482f92d90a1be27aecc91
donna2010-02-23d01t02.flac:f6a6cc2e24c74960b664c84429dfecfc
donna2010-02-23d01t03.flac:2cb52e1edd57892cdc38b21d0812d4c9
donna2010-02-23d01t04.flac:a581a7075b4664c6f01b58918ac41144
donna2010-02-23d01t05.flac:1f67ff07f1c0b35a3505395eefbaa8eb
donna2010-02-23d01t06.flac:cefa7354c5b16b813be52cb51bbcdca5
donna2010-02-23d01t07.flac:e73468c9668dac92b7285f4c1c54510b
donna2010-02-23d01t08.flac:7b0d8e165592f616d73e89af53a4964f
donna2010-02-23d02t01.flac:a23176073fc549c576f8096e16b8f8f8
donna2010-02-23d02t02.flac:79a98fc239d6e1acedb38f847e71f558
donna2010-02-23d02t03.flac:022010839e80a90bb65b421e751f61d7
donna2010-02-23d02t04.flac:4e29273c6d43d28e403b398b78a964dc
donna2010-02-23d02t05.flac:49074e3e39d89d853165738616e43dd4
donna2010-02-23d02t06.flac:13a0b5e8930654265471f39698c3083d
donna2010-02-23d02t07.flac:3e41e334d78df45478450fd189958443
donna2010-02-23d02t08.flac:34d321321dfb8eaf8e040c62a14e70ab
donna2010-02-23d02t09.flac:3f21515eafd7a3947e63cb2172f812cf
donna2010-02-23d02t10.flac:8e18a1d9365f8e23ab9e65ec0b3c119b
donna2010-02-23d03t01.flac:97255212198c16907044c57826eb2654
donna2010-02-23d03t02.flac:7c34196dd640ac0d27cce5993e65603d
donna2010-02-23d03t03.flac:fc3a82da18e7fe18c1e015f45d0d38c7
donna2010-02-23d03t04.flac:43dd8a26716412c9d19533a60862f8b4
donna2010-02-23d03t05.flac:717555967d89fe0d3834f75b6b06f62a
donna2010-02-23d03t06.flac:cc6e336f84d9588397877e40992ec883
donna2010-02-23d03t07.flac:bcfc1274531448fc29437c7eb15c25a1
donna2010-02-23d03t08.flac:0e64183743b11d37bd7d3636b697cfc6
donna2010-02-23d03t09.flac:d35c231e872efe24cfd90027d3798204
donna2010-02-23d03t10.flac:f01eacd31463e301ccd00ac74ea717f0
donna2010-02-23d03t11.flac:ee0c0de62da1f0e15fc4efa70f465f1f
donna2010-02-23d03t12.flac:9f80fbed0c43427c28b820569dd929bf

Shntool

length expanded size cdr WAVE problems fmt ratio filename
4:42.23 49798940 B --- -- ---xx flac 0.4515 donna2010-02-23d01t01.flac
3:51.23 40802540 B --- -- ---xx flac 0.3668 donna2010-02-23d01t02.flac
4:21.29 46108652 B --- -- ---xx flac 0.4705 donna2010-02-23d01t03.flac
5:26.71 57673436 B --- -- ---xx flac 0.4532 donna2010-02-23d01t04.flac
2:57.19 31267532 B --- -- ---xx flac 0.3628 donna2010-02-23d01t05.flac
3:55.28 41519900 B --- -- ---xx flac 0.4240 donna2010-02-23d01t06.flac
3:56.33 41708060 B --- -- ---xx flac 0.3300 donna2010-02-23d01t07.flac
6:02.28 63922700 B --- -- ---xx flac 0.4610 donna2010-02-23d01t08.flac
8:01.33 84926060 B --- -- ---xx flac 0.5550 donna2010-02-23d02t01.flac
6:15.74 66324092 B --- -- ---xx flac 0.5020 donna2010-02-23d02t02.flac
11:30.16 121753676 B --- -- ---xx flac 0.4829 donna2010-02-23d02t03.flac
4:22.34 46296812 B --- -- ---xx flac 0.5401 donna2010-02-23d02t04.flac
5:24.63 57301820 B --- -- ---xx flac 0.5807 donna2010-02-23d02t05.flac
5:41.27 60215948 B --- -- ---xx flac 0.5079 donna2010-02-23d02t06.flac
7:04.47 74904188 B --- -- ---xx flac 0.4835 donna2010-02-23d02t07.flac
9:59.22 105715388 B --- -- ---xx flac 0.4905 donna2010-02-23d02t08.flac
2:51.19 30209132 B --- -- ---xx flac 0.3163 donna2010-02-23d02t09.flac
8:04.46 85485836 B --- -- ---xx flac 0.5606 donna2010-02-23d02t10.flac
7:10.00 75852044 B --- -- ---xx flac 0.3534 donna2010-02-23d03t01.flac
7:59.15 84530924 B --- -- ---xx flac 0.3657 donna2010-02-23d03t02.flac
6:13.40 65891324 B --- -- ---xx flac 0.4391 donna2010-02-23d03t03.flac
9:32.49 101016092 B --- -- ---xx flac 0.4915 donna2010-02-23d03t04.flac
6:39.69 70545932 B --- -- ---xx flac 0.4708 donna2010-02-23d03t05.flac
6:29.45 68725484 B --- -- ---xx flac 0.4725 donna2010-02-23d03t06.flac
0:54.66 9680876 B --- -- ---xx flac 0.2983 donna2010-02-23d03t07.flac
2:55.30 30940604 B --- -- ---xx flac 0.4629 donna2010-02-23d03t08.flac
10:59.10 116271164 B --- -- ---xx flac 0.4796 donna2010-02-23d03t09.flac
1:37.06 17124956 B --- -- ---xx flac 0.2526 donna2010-02-23d03t10.flac
6:01.37 63767468 B --- -- ---xx flac 0.4108 donna2010-02-23d03t11.flac
12:32.33 132730460 B --- -- ---xx flac 0.4807 donna2010-02-23d03t12.flac
183:34.60 1943012040 B 0.4634 (30 files)



Checksumsdonna2010-02-23d01t01.flac:8977f8457be482f92d90a1be27aecc91
donna2010-02-23d01t02.flac:f6a6cc2e24c74960b664c84429dfecfc
donna2010-02-23d01t03.flac:2cb52e1edd57892cdc38b21d0812d4c9
donna2010-02-23d01t04.flac:a581a7075b4664c6f01b58918ac41144
donna2010-02-23d01t05.flac:1f67ff07f1c0b35a3505395eefbaa8eb
donna2010-02-23d01t06.flac:cefa7354c5b16b813be52cb51bbcdca5
donna2010-02-23d01t07.flac:e73468c9668dac92b7285f4c1c54510b
donna2010-02-23d01t08.flac:7b0d8e165592f616d73e89af53a4964f
donna2010-02-23d02t01.flac:a23176073fc549c576f8096e16b8f8f8
donna2010-02-23d02t02.flac:79a98fc239d6e1acedb38f847e71f558
donna2010-02-23d02t03.flac:022010839e80a90bb65b421e751f61d7
donna2010-02-23d02t04.flac:4e29273c6d43d28e403b398b78a964dc
donna2010-02-23d02t05.flac:49074e3e39d89d853165738616e43dd4
donna2010-02-23d02t06.flac:13a0b5e8930654265471f39698c3083d
donna2010-02-23d02t07.flac:3e41e334d78df45478450fd189958443
donna2010-02-23d02t08.flac:34d321321dfb8eaf8e040c62a14e70ab
donna2010-02-23d02t09.flac:3f21515eafd7a3947e63cb2172f812cf
donna2010-02-23d02t10.flac:8e18a1d9365f8e23ab9e65ec0b3c119b
donna2010-02-23d03t01.flac:97255212198c16907044c57826eb2654
donna2010-02-23d03t02.flac:7c34196dd640ac0d27cce5993e65603d
donna2010-02-23d03t03.flac:fc3a82da18e7fe18c1e015f45d0d38c7
donna2010-02-23d03t04.flac:43dd8a26716412c9d19533a60862f8b4
donna2010-02-23d03t05.flac:717555967d89fe0d3834f75b6b06f62a
donna2010-02-23d03t06.flac:cc6e336f84d9588397877e40992ec883
donna2010-02-23d03t07.flac:bcfc1274531448fc29437c7eb15c25a1
donna2010-02-23d03t08.flac:0e64183743b11d37bd7d3636b697cfc6
donna2010-02-23d03t09.flac:d35c231e872efe24cfd90027d3798204
donna2010-02-23d03t10.flac:f01eacd31463e301ccd00ac74ea717f0
donna2010-02-23d03t11.flac:ee0c0de62da1f0e15fc4efa70f465f1f
donna2010-02-23d03t12.flac:9f80fbed0c43427c28b820569dd929bf
Visibleno (dead)
TypeOther
Last seederLast activity 94 days, 14:53:56 ago
Size858.67 MB (900384268 Bytes)
Added2010-02-24 13:35:22
Views0
Hits1023
Snatched17 times
Upped byzmanatl
Num files
[See full list]
31 files
Seeders
[Hide list]
0 Seeder(s)
Leechers
[Hide list]
0 Leecher(s)

Add a comment

zmanatl 2010-02-24 15:35:13
Here is last night's Donna Hopkins & Friends show from the usual Tuesday night spot, Zuffy's Place in Atlanta. She plays each Tuesday with Bobby Lee Rogers. Bobby was feeling a bit under the weather and was not going to be there. Donna called a few of her friends and invited them to play. I arrived at about 8:40 and sat at the front table where Donna was eating her dinner. I set up my gear and then set up my computer. My connection to the wifi was good so it was Ztream On!

Donna got up and began to play solo acoustic. She played that way the entire short set. Holly came up and added vocals on the last tune, Don't Ask Why. She got everyone pumped for some of her guests. The next set was interesting as it was mostly Donna's guests playing. Holly, Michael, Ben, Will, and Andrew, filled the large void left with Bobby being out. An interesting mix of tunes. The third set was more of the guests, only Donna played on most of the set. Some very nice jamming with all the different musicians in the mix. I thought the sound was pretty damn good for having so many plugged in all night. They actually took a short break and came back for a short 4th set. I put it on the 3rd disc for burning purposes. Steve Nunez played guitar and sang both tunes of the 4th set. I really liked those songs!

Great to hang with an old friend, Sara T all night at my table. Been a minute or 2! Also good to have Pete in the house as always! Nice to have a few folks out there on the stream as well.

Early Dinner before the show was cooked by me for Chris and I. A small Top Round Roast, and my concoction of the day, sauteed Fresh Brussel's Sprouts, with Carmalized Vidalia Onions, Diced Pork, Fresh Garlic, Brown Sugar, White Wine, and various other Spices. And some White Mountain Bread! Just after midnight, also about 7 hours after I ate dinner, my stomach was growling. i opted for a Chicken Salad Sandwich on Toast with Lettuce and Tomatoes. It was accompanied by Sweet Potato Fries, nice and crispy.

Enjoy show # 48 of 2010!

Add a comment


http://etree.org : http://db.etree.org : http://forums.etree.org : http://wiki.etree.org : Legal : RSS Feed

Contents designed & maintained by the etree.org volunteers
1998-2014, etree.org, except where noted. All Rights Reserved.
Read our terms of service and privacy guidelines