bt.etree.org
etree.org Community Bittorrent Tracker
ArtistOther
ShowLucero - April 4, 2010 - E Factory - Philadelphia, PA
Report this as
non-Trade-Friendly
Email us
Torrentlucero2010-04-03.flac1644 - Electric Factory - Philadelphia, PA.torrent (click to download)
Downloads aslucero2010-04-03.flac1644 - Electric Factory - Philadelphia, PA
Info hash4320665ae09d34c806b0ab31d7717766110aadf0
DescriptionPERFORMANCE
Band: Lucero
Date: April 3, 2010
Venue: Electric Factory
City, State: Philadephia, PA
Taper: Chris Imburgia

SETLIST & TRACKING
01. Intro>
02. Sounds of the City
03. That Much Further West
04. Can't Feel a Thing
05. Raising Hell
06. Slow Dancing
07. Sixes and Sevens
08. Goodbye Again
09. Kiss the Bottle
10. Mom
11. Smoke
12. Tears Don't Matter Much
13. I Can Get Us Out of Here

PERFORMANCE NOTES
Opened for Drive-By Truckers. Langhorne Slim played before Lucero.

RECORDING NOTES
Location: LOC / FOB
Microphone: Milab VM-44 Classic (Cardioid)
Microphone Configuration: NOS @80 degrees
Preamp, A/D Conversion and Recording Deck: Marantz PMD661 (OWM)
Recording Format: Wav file, 24 bits @ 48 kHz Sample Rate

CONVERSION
Transfer: SDHC-> USB-> PC
[1] Song Tracking with CD Wave
[2] Levels Normalized, Resample, Dither with Wavelab 5
[3] File Compression with Trader's Little Helper (Level 6)
[4] FLAC File Tagging with Foobar 2000 Live Show Tagger Plugin
[5] Album Art tagging with Media Monkey
Final Format: FLAC Files, 16 Bits @ 44.1 kHz Sample Rate

FLAC FINGERPRINT
lucero2010-04-03t01.flac:9d97c89410b9af76d221661c60144c56
lucero2010-04-03t02.flac:4d3fb6fcb79e80b38a8caf619721751d
lucero2010-04-03t03.flac:32638ce7c41214ca7650ac3e473f77b3
lucero2010-04-03t04.flac:dd813ef49286b31d743d2672c10c1a87
lucero2010-04-03t05.flac:d2eb354530ff7903599975261eb39577
lucero2010-04-03t06.flac:a4be6f1c314ec355dcd937ba8a1e81da
lucero2010-04-03t07.flac:29b1c4521d12dd0b336d9b055ab84554
lucero2010-04-03t08.flac:8a4f3243491a000b001735f13f9c0156
lucero2010-04-03t09.flac:9ee9abc206da3834cfb4de67353aa84d
lucero2010-04-03t10.flac:96be6117d5da85077a2dbcf263c2ef66
lucero2010-04-03t11.flac:81f500bb1accb09099ab5a9814020e96
lucero2010-04-03t12.flac:1e486ff45cb66a76ec5fbe06d38111e8
lucero2010-04-03t13.flac:19877a84ca4ffe961a3115b143e9679b

SECTOR BOUNDARY CONFIRMATION
length expanded size cdr WAVE problems fmt ratio filename
0:16.52 2944748 B --- -- ---xx flac 0.5517 lucero2010-04-03t01.flac
2:51.10 30187964 B --- -- ---xx flac 0.5873 lucero2010-04-03t02.flac
3:24.67 36143228 B --- -- ---xx flac 0.5655 lucero2010-04-03t03.flac
4:30.32 47703308 B --- -- ---xx flac 0.5277 lucero2010-04-03t04.flac
2:52.56 30472556 B --- -- ---xx flac 0.5700 lucero2010-04-03t05.flac
3:31.62 37366268 B --- -- ---xx flac 0.5160 lucero2010-04-03t06.flac
3:06.33 32888060 B --- -- ---xx flac 0.6056 lucero2010-04-03t07.flac
4:36.09 48707612 B --- -- ---xx flac 0.5072 lucero2010-04-03t08.flac
3:06.65 32963324 B --- -- ---xx flac 0.5804 lucero2010-04-03t09.flac
3:51.09 40769612 B --- -- ---xx flac 0.4937 lucero2010-04-03t10.flac
5:23.16 57014876 B --- -- ---xx flac 0.5487 lucero2010-04-03t11.flac
4:39.35 49297964 B --- -- ---xx flac 0.5682 lucero2010-04-03t12.flac
3:56.23 41684540 B --- -- ---xx flac 0.5866 lucero2010-04-03t13.flac
46:07.19 488144060 B 0.5516 (13 files)
Checksumslucero2010-04-03t01.flac:9d97c89410b9af76d221661c60144c56
lucero2010-04-03t02.flac:4d3fb6fcb79e80b38a8caf619721751d
lucero2010-04-03t03.flac:32638ce7c41214ca7650ac3e473f77b3
lucero2010-04-03t04.flac:dd813ef49286b31d743d2672c10c1a87
lucero2010-04-03t05.flac:d2eb354530ff7903599975261eb39577
lucero2010-04-03t06.flac:a4be6f1c314ec355dcd937ba8a1e81da
lucero2010-04-03t07.flac:29b1c4521d12dd0b336d9b055ab84554
lucero2010-04-03t08.flac:8a4f3243491a000b001735f13f9c0156
lucero2010-04-03t09.flac:9ee9abc206da3834cfb4de67353aa84d
lucero2010-04-03t10.flac:96be6117d5da85077a2dbcf263c2ef66
lucero2010-04-03t11.flac:81f500bb1accb09099ab5a9814020e96
lucero2010-04-03t12.flac:1e486ff45cb66a76ec5fbe06d38111e8
lucero2010-04-03t13.flac:19877a84ca4ffe961a3115b143e9679b


Visibleno (dead)
TypeOther
Last seederLast activity 211 days, 22:49:28 ago
Size257.77 MB (270294582 Bytes)
Added2010-04-04 17:17:46
Views8
Hits723
Snatched154 times
Upped bycimburgia
Num files
[See full list]
14 files
Seeders
[Hide list]
0 Seeder(s)
Leechers
[Hide list]
0 Leecher(s)

Add a comment

noochnooch 2010-04-04 19:24:40
thanks!
tjr1374 2010-04-04 19:29:05
Thanks man - good to meet you last night.
Blues_Ken 2010-04-04 20:13:05
Thanks
mundo 2010-04-04 21:16:07
Thanks for the up, By any chance did you record Lanhorne and/or the Truckers?
cimburgia 2010-04-05 06:55:48
I did, tracking them out tonight
reservationgirl 2010-04-05 14:59:33
thanks!
sspott 2010-04-05 21:30:53
Are the Milab's the 'Earthworks' or the 'MBHO' of the time? I've heard some decent pulls with them in the past year... but F0cker, c'mon? I'd expect you to go back to the 150's before the Milab's?
deviant 2010-04-05 21:40:37
FYI, Langhorne and Lucero are open to board taping. For Langhorne, talk to any of the band members.
cimburgia 2010-04-06 19:56:32
I think the Milabs are more on the level of 480s and you'll be seeing them more often around in the future. Better than the 150's for sure...IMO.
cimburgia 2010-04-06 19:58:28
I think they sound pretty good though. Looking fwd to getting a good pre behind them to really make them shine though

Add a comment


http://etree.org : http://db.etree.org : http://forums.etree.org : http://wiki.etree.org : Legal : RSS Feed

Contents designed & maintained by the etree.org volunteers
1998-2014, etree.org, except where noted. All Rights Reserved.
Read our terms of service and privacy guidelines