bt.etree.org
etree.org Community Bittorrent Tracker
ArtistWidespread Panic
Show2001-10-16 Paramount Theater - Seattle, WA
Report this as
non-Trade-Friendly
Email us
Torrentwsp2001-10-16.ak40.rak.6542.shnf.torrent (click to download)
Downloads aswsp2001-10-16.ak40.rak.6542.shnf
Info hash41d6440f40f4097fc4b3d362b5fbbe253ff472ed
db linkhttp://db.etree.org/shninfo_detail.php?shnid=6542 | Show | Source
DescriptionWidespread Panic
Tuesday October 16th 2001
Paramount Theatre, Seattle, WA

Source: FOB 25' from stage dfc Neumann AK40's(ortf)> LC3ka Active Cables> KM100 mic bodies> Lunatec V2> Apogee AD-1000> Dat

Transfer/Encoding: dat(m)> s/pdif coax> Egosys Waveterminal 2496> PC/Soundforge 4.5> CD WAVE>MKW(.shn)with Seek Tables Appended

Recording and Transfer by Rak

cd 1-Set 1
==============
1. Little Kin >
2. Let It Rock >
3. Walkin' (For Your Love) >
4. Aunt Avis
5. Holden Oversoul >
6. Stop-Go >
7. Dyin' Man
8. Gimme >
9. Makes Sense To Me

cd 2-Set 2
================
1. Let's Get Down To Business
2. Travelin' Light
3. Climb To Safety
4. Fixin' To Die*
5. Wish You Were Here* >
6. Jam* > (with all of wsp and trey)
7. Jam* > (only with Trey, Dave, Todd and Sunny)
8. Drums >

cd 3 end set 2
=================
1. Drums >
2. Bear's Gone Fishin' >
3. Blight >
4. Coconut
5. Encore: Imitation Leather Shoes

* with Trey Anastasio on guitar/vocals
Checksums5b616cf5a42fbf8c9eebf82f2ee3d688 *wsp01-10-16d1t01.shn
8d06274a650953273783f0aeca6d41d2 *wsp01-10-16d1t02.shn
3438db9595a49dbc3021334fb0b6d0cf *wsp01-10-16d1t03.shn
b74a4dcaf6b2fdac9d67dde0796eb386 *wsp01-10-16d1t04.shn
3122d72b2f0259efa5a45eb013e21565 *wsp01-10-16d1t05.shn
8abe3875dc427355260477b22a235d1e *wsp01-10-16d1t06.shn
ec059def1c9fb9b2033d8da8da528601 *wsp01-10-16d1t07.shn
371109ded94ad8f826d127e133923bee *wsp01-10-16d1t08.shn
5ced66bf952348d76e2e0374ff9fd7b8 *wsp01-10-16d1t09.shn
59f5a762f54399b47a8bd40373923bc2 *wsp01-10-16d2t01.shn
a8dca4c5c21f5e5170004f7e666a2987 *wsp01-10-16d2t02.shn
d76f81d75d716fb20922a857236a6909 *wsp01-10-16d2t03.shn
765b23e0bf58cc0764979b41c06b94d9 *wsp01-10-16d2t04.shn
63f87463fe980cebb6052b30bce6436a *wsp01-10-16d2t05.shn
153ac3ad94751983b24b0b477faaeafa *wsp01-10-16d2t06.shn
405ca65c04ee5522e2ff0cc5fd272582 *wsp01-10-16d2t07.shn
effe771eb8dcdc82fc24b7b1e882f2af *wsp01-10-16d2t08.shn
280a203b9c771298199d8e81f2572599 *wsp01-10-16d3t01.shn
8eae8740b97c3ef583a78e605d1fe747 *wsp01-10-16d3t02.shn
3b44b7c9f408879faf57b725adfb2bec *wsp01-10-16d3t03.shn
7d0617d04a6c00850a374498b3e50c05 *wsp01-10-16d3t04.shn
0fe391a3c1e81755457dc8e275599cad *wsp01-10-16d3t05.shn

length expanded size cdr WAVE problems fmt ratio filename
6:45.41 71538476 B --- -- ---xx shn 0.5836 wsp01-10-16d1t01.shn
6:43.71 71256236 B --- -- ---xx shn 0.5269 wsp01-10-16d1t02.shn
9:41.49 102603692 B --- -- ---xx shn 0.5339 wsp01-10-16d1t03.shn
7:43.20 81720284 B --- -- ---xx shn 0.5221 wsp01-10-16d1t04.shn
7:05.11 74995916 B --- -- ---xx shn 0.5443 wsp01-10-16d1t05.shn
12:42.62 134562668 B --- -- ---xx shn 0.5333 wsp01-10-16d1t06.shn
5:34.04 58927052 B --- -- ---xx shn 0.5790 wsp01-10-16d1t07.shn
8:33.39 90584972 B --- -- ---xx shn 0.5229 wsp01-10-16d1t08.shn
4:37.60 49003964 B --- -- ---xx shn 0.5793 wsp01-10-16d1t09.shn
5:10.07 54700508 B --- -- ---xx shn 0.5649 wsp01-10-16d2t01.shn
7:02.53 74565500 B --- -- ---xx shn 0.5671 wsp01-10-16d2t02.shn
6:33.62 69471068 B --- -- ---xx shn 0.5923 wsp01-10-16d2t03.shn
13:52.16 146802476 B --- -- ---xx shn 0.5712 wsp01-10-16d2t04.shn
8:53.55 94150604 B --- -- ---xx shn 0.5452 wsp01-10-16d2t05.shn
9:04.66 96116876 B --- -- ---xx shn 0.5857 wsp01-10-16d2t06.shn
6:15.71 66317036 B --- -- ---xx shn 0.5522 wsp01-10-16d2t07.shn
5:46.04 61043852 B --- -- ---xx shn 0.4642 wsp01-10-16d2t08.shn
7:20.71 77783036 B --- -- ---xx shn 0.5846 wsp01-10-16d3t01.shn
7:02.29 74509052 B --- -- ---xx shn 0.5789 wsp01-10-16d3t02.shn
6:35.67 69835628 B --- -- ---xx shn 0.5923 wsp01-10-16d3t03.shn
9:32.18 100943180 B --- -- ---xx shn 0.5903 wsp01-10-16d3t04.shn
4:24.28 46635500 B --- -- ---xx shn 0.6317 wsp01-10-16d3t05.shn
167:03.04 1768067576 B 0.5594 (22 files)
TypeWidespread Panic
Last seederLast activity 1 day, 13:29:38 ago
Size943.17 MB (988985713 Bytes)
Added2010-08-16 20:15:19
Views0
Hits433
Snatched128 times
Upped byLetItRollOn
Num files
[See full list]
30 files
Seeders
[Hide list]
0 Seeder(s)
Leechers
[Hide list]
0 Leecher(s)

Add a comment

bcc32065 2010-08-17 22:54:25
cool upload. I remember getting a little squashed down front when Trey came out and the crowd surged forward, but this was a great show! many thanks

Add a comment


http://etree.org : http://db.etree.org : http://forums.etree.org : http://wiki.etree.org : Legal : RSS Feed

Contents designed & maintained by the etree.org volunteers
1998-2014, etree.org, except where noted. All Rights Reserved.
Read our terms of service and privacy guidelines