bt.etree.org
etree.org Community Bittorrent Tracker
ArtistBlack Crowes
ShowThe Black Crowes 09/19/2010 Thomas Wolfe Auditorium Asheville, NC neumann ak40's
Report this as
non-Trade-Friendly
Email us
Torrentblackcrowes2010-09-19.ak40.flac16.torrent (click to download)
Downloads asblackcrowes2010-09-19.ak40.flac16
Info hash9ecfcbdcaa6f5d26ce10f44758be4b14631e96a8
DescriptionThe Black Crowes
09/19/2010
Thomas Wolfe Auditorium
Asheville, NC

source: Neumann ak40 > lc3 > km100 (din) > Lunatec V3 > Edirol R-44 @ 24/48
location: Row T seats 11&12, FOB just LOC mics at 7' set one and 7.5' set two
transfer: SDHC card > PC > wavelab 6.1 > cd wave > traders little helper (flac level 8)

all editing (fades, Crystal Resampler (high), dither w/ iZotope Ozone 4) done in wavelab 6.1

*16bit/44.1khz fileset*

recorded and transferred by Gordon Wilson

A Team Dirty South Recording

set one/acoustic:

01. Intro
02. Jealous Again
03. Hotel Illness
04. Whoa Mule
05. Lost my Driving Wheel
06. What Is Home
07. Ballad In Urgency
08. Wiser Time
09. East Virginia Blues
10. Oh Josephine
11. Nonfiction
12. My Morning Song
13. Miracle To Me

set two/electric:

01. Move It On Down The Line
02. Black Moon Creeping
03. Let It Be Gone
04. Greenhorn
05. Poor Elijah/Tribute To Johnson
06. Downtown Money Waster
07. Thorn In My Pride >
08. Drums >
09. Blues Jam >
10. Thorn In My Pride
11. Hard To Handle
12. Remedy

encore:
13. She Talks To Angels
14. Hot Burrito #2


shntool 3.0.4
Copyright (C) 2000-2007 Jason Jordan <shnutils@freeshell.org>

length expanded size cdr WAVE problems fmt ratio filename
1:20.18 14154380 B --- -- ---xx flac 0.4590 blackcrowes2010-09-19s1t01.flac
6:52.23 72730940 B --- -- ---xx flac 0.6000 blackcrowes2010-09-19s1t02.flac
4:00.25 42394844 B --- -- ---xx flac 0.6191 blackcrowes2010-09-19s1t03.flac
7:37.59 80753612 B --- -- ---xx flac 0.5674 blackcrowes2010-09-19s1t04.flac
8:50.35 93574364 B --- -- ---xx flac 0.5388 blackcrowes2010-09-19s1t05.flac
6:28.16 68480876 B --- -- ---xx flac 0.5823 blackcrowes2010-09-19s1t06.flac
10:31.31 111381356 B --- -- ---xx flac 0.5716 blackcrowes2010-09-19s1t07.flac
13:39.00 144471644 B --- -- ---xx flac 0.5631 blackcrowes2010-09-19s1t08.flac
5:36.20 59317484 B --- -- ---xx flac 0.5359 blackcrowes2010-09-19s1t09.flac
8:20.04 88209452 B --- -- ---xx flac 0.5718 blackcrowes2010-09-19s1t10.flac
9:35.61 101573516 B --- -- ---xx flac 0.5657 blackcrowes2010-09-19s1t11.flac
7:29.08 79222460 B --- -- ---xx flac 0.6425 blackcrowes2010-09-19s1t12.flac
6:32.19 69193532 B --- -- ---xx flac 0.5350 blackcrowes2010-09-19s1t13.flac
8:47.59 93101612 B --- -- ---xx flac 0.5210 blackcrowes2010-09-19s2t01.flac
9:34.06 101267756 B --- -- ---xx flac 0.5586 blackcrowes2010-09-19s2t02.flac
5:57.47 63085388 B --- -- ---xx flac 0.5373 blackcrowes2010-09-19s2t03.flac
8:04.12 85405868 B --- -- ---xx flac 0.4856 blackcrowes2010-09-19s2t04.flac
13:57.54 147773852 B --- -- ---xx flac 0.5283 blackcrowes2010-09-19s2t05.flac
13:26.10 142201964 B --- -- ---xx flac 0.5353 blackcrowes2010-09-19s2t06.flac
5:45.74 61032092 B --- -- ---xx flac 0.5316 blackcrowes2010-09-19s2t07.flac
5:22.47 56911388 B --- -- ---xx flac 0.5398 blackcrowes2010-09-19s2t08.flac
3:27.56 36646556 B --- -- ---xx flac 0.5802 blackcrowes2010-09-19s2t09.flac
2:24.41 25498076 B --- -- ---xx flac 0.5493 blackcrowes2010-09-19s2t10.flac
3:40.48 38920940 B --- -- ---xx flac 0.5629 blackcrowes2010-09-19s2t11.flac
8:08.40 86177324 B --- -- ---xx flac 0.5468 blackcrowes2010-09-19s2t12.flac
6:34.71 69668636 B --- -- ---xx flac 0.5069 blackcrowes2010-09-19s2t13.flac
5:37.30 59517404 B --- -- ---xx flac 0.5455 blackcrowes2010-09-19s2t14.flac
197:43.14 2092667316 B 0.5519 (27 files)

Checksums; flac fingerprint file generated by Trader's Little Helper
; generated on September 20, 2010, at 10:16:57

blackcrowes2010-09-19s1t01.flac:9b5fae94eef4595bb17c93b90b410281
blackcrowes2010-09-19s1t02.flac:70e1bdcace3e91234f226d4bd3534a11
blackcrowes2010-09-19s1t03.flac:6444ea05c74b01dcd60fdc47af94f203
blackcrowes2010-09-19s1t04.flac:5485c52b9dd61e54ab8c2998572ccb89
blackcrowes2010-09-19s1t05.flac:d590dc590ce6d3b7a1bd382bb1bbaf71
blackcrowes2010-09-19s1t06.flac:76453ea5c755463105a447fcde97ed2c
blackcrowes2010-09-19s1t07.flac:cf8fb25454fdba2e69d917d9b8769130
blackcrowes2010-09-19s1t08.flac:2ef5788799c2bf563a3bf7274eebd9f8
blackcrowes2010-09-19s1t09.flac:aa27e1e4c7ce1b3d0c8dcd8d10a85178
blackcrowes2010-09-19s1t10.flac:2662c573bc89644298af71cdd7678186
blackcrowes2010-09-19s1t11.flac:a456ec14a147bed7056a5b2a6082671f
blackcrowes2010-09-19s1t12.flac:3313fba3f4b16cfa9c28489da50517cf
blackcrowes2010-09-19s1t13.flac:f74cadcb6f33e12d6ca1f48544e5e11c
blackcrowes2010-09-19s2t01.flac:9e6d2a78305cd5b29f221da8b2e107d6
blackcrowes2010-09-19s2t02.flac:c550e9d092096190383c260a03244fcd
blackcrowes2010-09-19s2t03.flac:33f251080b42d448929283b03fbb4bf3
blackcrowes2010-09-19s2t04.flac:e4cf206f2708e647cd65fd1bf0700b96
blackcrowes2010-09-19s2t05.flac:fbba385746aa7ced126a24e714e81470
blackcrowes2010-09-19s2t06.flac:3dcd570ee7dd1b164be6b9c21daee6ec
blackcrowes2010-09-19s2t07.flac:26a45d85595b21c7359cadc18d225cab
blackcrowes2010-09-19s2t08.flac:b81d9a8278589b02d2b3a29d9f955fed
blackcrowes2010-09-19s2t09.flac:9043d96184d65bdcfe15daaedf546bf9
blackcrowes2010-09-19s2t10.flac:b516228ed3fab42de049b16f944fbe93
blackcrowes2010-09-19s2t11.flac:cbd9fe2c42c1646f952b89f2a5482d15
blackcrowes2010-09-19s2t12.flac:4a353bf0736b365109af443c6b6ab68a
blackcrowes2010-09-19s2t13.flac:ba6d54485b14ec02242a328ef5aa75cf
blackcrowes2010-09-19s2t14.flac:113c77f9eded11a1bf906cd50cba89ae
TypeBlack Crowes
Last seederLast activity 1 day, 08:02:19 ago
Size1.076 GB (1154995453 Bytes)
Added2010-09-20 10:39:58
Views0
Hits993
Snatched536 times
Upped bydatdork
Num files
[See full list]
29 files
Peers
[See full list]
1 seeder, 0 leechers = 1 peer total

Add a comment

<< Prev      Next >>
1 - 20 | 21 - 24

datdork 2010-09-24 00:22:13
and always nice to have nice respectful folks around the mics not chatting it up! there for the music!
jstrummer 2010-09-24 11:18:40
thanks - this looks like the heat from the tour so far.

someday i can't wait to matrix these things with the boards and add some volume.

chatters. guys - go to the lobby so the rest of us can watch the dang show eh?

3 hrs and you paid good money - stfu up and listen to the music. plenty of time to chat when it's done!
mule___ryder 2010-10-02 18:29:09
ty for sharing!

-ryder
Kenny_J 2010-10-06 19:46:48
Many Thanks Brother. I sure wish somebody could post the 9-30-10 show in Memphis. Peace, Love, and Panic Kenny J

1 - 20 | 21 - 24
<< Prev      Next >>

Add a comment


http://etree.org : http://db.etree.org : http://forums.etree.org : http://wiki.etree.org : Legal : RSS Feed

Contents designed & maintained by the etree.org volunteers
1998-2014, etree.org, except where noted. All Rights Reserved.
Read our terms of service and privacy guidelines