bt.etree.org
etree.org Community Bittorrent Tracker
ArtistOther
ShowChristmas Pre-Jam All Star Band Warren Haynes Christmas Pre-Jam Orange Peel Asheville, North Carolina 12/10/2010 (Schoeps FOB)
Report this as
non-Trade-Friendly
Email us
Torrentallstarjam2010-12-10.flac16.torrent (click to download)
Downloads asallstarjam2010-12-10.flac16
Info hash8100a4f76d6c20da7e00951c1ea341fd78e74375
DescriptionChristmas Pre-Jam All Star Band
Warren Haynes Christmas Pre-Jam
Orange Peel
Asheville, North Carolina
12/10/2010

Source: Schoeps 4V'S(din)>Sound Devices 722 (24/48)
FOB/DLFC 40' From Stage, 5 1/2' High
DSP: Sound Devices 722>Sound Forge 9.0>CD Wave>flac(16)
Recorded By: Manofz
Seeded By: Manofz

Disc I

Audley Freed/Kevn Kinney/Ivan Neville/Ron Johnson/Fred Eltringham

01 Introduction By Uncle Dave/Tuning
02 Hell Below
03 Nature Boy
Warren Haynes/Ivan Neville/Ron Holloway/Ron Johnson/?Drums
04 Papa Was A Rolling Stone
Steve Miller/Carlos Reyes
05 Introduction By Warren Haynes/Steve Banter
06 ? For Les Paul
Steve Miller/Carlos Reyes/Chris Myers/Ron Holloway/Mike Barnes/Ron Johnson
07 CC Rider
08 Tore Down
09 Snatch It Back And Hold It
Warren Haynes/Gregg Allman/Cody Dickenson/Ivan Neville/Ron Johnson/Fred Eltringham
10 *Crossroads
Encore:
11 Martin Anderson Bring Em' Back
12 Key To The Highway

Flac Fingerprint

allstarband2010-12-10d01t01.flac:7cab8daedb7a8a52bdb52a17da181fff
allstarband2010-12-10d01t02.flac:9260ac50b3159e8f0eed5ce07a194337
allstarband2010-12-10d01t03.flac:a1c5687633fa1b375affe904848033ba
allstarband2010-12-10d01t04.flac:6bd0acef37f8cff67036ee33a7b6f287
allstarband2010-12-10d01t05.flac:e9188fe39fa42528c26ad6b759023096
allstarband2010-12-10d01t06.flac:3dee7a5c7b17ab0b2e377285fea5435c
allstarband2010-12-10d01t07.flac:ce5cb77640a76f4aec1a3983fdce250e
allstarband2010-12-10d01t08.flac:4dfbd8585ac3f87b2c18d0b27becead6
allstarband2010-12-10d01t09.flac:6f778be61f06824da7055cf17a1e82dc
allstarband2010-12-10d01t10.flac:77407e064a854bff46efa94c20693281
allstarband2010-12-10d01t11.flac:6f85c8ccdb111d88a03f76b204def1ca
allstarband2010-12-10d01t12.flac:6c1d366895411d1ed10ccb80324829ae

Shntool

length expanded size cdr WAVE problems fmt ratio filename
2:48.12 29663468 B --- -- ---xx flac 0.3946 allstarband2010-12-10d01t01.flac
7:12.69 76367132 B --- -- ---xx flac 0.4956 allstarband2010-12-10d01t02.flac
9:56.28 105200300 B --- -- ---xx flac 0.4924 allstarband2010-12-10d01t03.flac
9:39.54 102262652 B --- -- ---xx flac 0.5213 allstarband2010-12-10d01t04.flac
2:45.47 29216588 B --- -- ---xx flac 0.4018 allstarband2010-12-10d01t05.flac
6:27.69 68429132 B --- -- ---xx flac 0.3702 allstarband2010-12-10d01t06.flac
9:57.61 105454316 B --- -- ---xx flac 0.4719 allstarband2010-12-10d01t07.flac
4:34.46 48441836 B --- -- ---xx flac 0.5388 allstarband2010-12-10d01t08.flac
5:13.25 55272044 B --- -- ---xx flac 0.5003 allstarband2010-12-10d01t09.flac
6:57.52 73681148 B --- -- ---xx flac 0.5095 allstarband2010-12-10d01t10.flac
3:30.25 37102844 B --- -- ---xx flac 0.4124 allstarband2010-12-10d01t11.flac
5:29.18 58077980 B --- -- ---xx flac 0.5565 allstarband2010-12-10d01t12.flac
74:33.56 789169440 B 0.4821 (12 files)


Checksumsallstarband2010-12-10d01t01.flac:7cab8daedb7a8a52bdb52a17da181fff<br />
allstarband2010-12-10d01t02.flac:9260ac50b3159e8f0eed5ce07a194337<br />
allstarband2010-12-10d01t03.flac:a1c5687633fa1b375affe904848033ba<br />
allstarband2010-12-10d01t04.flac:6bd0acef37f8cff67036ee33a7b6f287<br />
allstarband2010-12-10d01t05.flac:e9188fe39fa42528c26ad6b759023096<br />
allstarband2010-12-10d01t06.flac:3dee7a5c7b17ab0b2e377285fea5435c<br />
allstarband2010-12-10d01t07.flac:ce5cb77640a76f4aec1a3983fdce250e<br />
allstarband2010-12-10d01t08.flac:4dfbd8585ac3f87b2c18d0b27becead6<br />
allstarband2010-12-10d01t09.flac:6f778be61f06824da7055cf17a1e82dc<br />
allstarband2010-12-10d01t10.flac:77407e064a854bff46efa94c20693281<br />
allstarband2010-12-10d01t11.flac:6f85c8ccdb111d88a03f76b204def1ca<br />
allstarband2010-12-10d01t12.flac:6c1d366895411d1ed10ccb80324829ae<br />
TypeOther
Last seederLast activity 4:08:45 ago
Size362.80 MB (380423151 Bytes)
Added2010-12-11 01:34:59
Views0
Hits1565
Snatched602 times
Upped byzmanatl
Num files
[See full list]
13 files
Peers
[See full list]
1 seeder, 0 leechers = 1 peer total

Add a comment

raimax 2010-12-11 01:48:36
Thank you.
LGandM 2010-12-11 01:56:46
what a fun nite !!! thanx guys !!! bring on 2moro !!1
africolaman 2010-12-11 02:52:07
Thanks.
Tomahawk-Kid 2010-12-11 03:34:34
Thank you!
mushroom54 2010-12-11 05:58:35
Thanks Steve,
Downloading first thing in morning
Martyn UK your Buddy ha ha
mike1061 2010-12-11 07:32:58
Thanks
Mike
drewski1986 2010-12-11 10:13:41
V2...AD2K ??? what's up
Panicstream 2010-12-11 11:23:55
stream is up

http://panicstream.net/streams/warren_haynes/2010_12_10/player.html
kaahzmyk 2010-12-11 12:01:07
It's that time of year again! Thank you for sharing.
csellars4 2010-12-11 13:16:02
A big "blanket" thank you for all the Christmas Pre-Jam ups. Very cool. Thanks Zman for the ups and to manofz for the recordings.
mule___ryder 2010-12-11 17:05:42
ty for sharing!

-ryder
Blues_Ken 2010-12-11 18:19:33
Thanks
zolli 2011-01-05 06:43:13
dunno if anyone still cares, but
Track 6: Nature Boy (Nat King Cole)
Track 3 is unidentified

many thanks for the seed!

Add a comment


http://etree.org : http://db.etree.org : http://forums.etree.org : http://wiki.etree.org : Legal : RSS Feed

Contents designed & maintained by the etree.org volunteers
1998-2014, etree.org, except where noted. All Rights Reserved.
Read our terms of service and privacy guidelines