bt.etree.org
etree.org Community Bittorrent Tracker
ArtistThe Heavy Pets
Showthp2011-12-02.mtx.miller.117547.flac16
Report this as
non-Trade-Friendly
Email us
Torrentthp2011-12-02.mtx.miller.117547.flac16.torrent (click to download)
Downloads asthp2011-12-02.mtx.miller.117547.flac16
Info hashc14e17e413226ed62108c5842ddc017d9823cd6d
db linkhttp://db.etree.org/shn/117547 | Show | Source
DescriptionThe Heavy Pets - December 2, 2011
The Blockley - Philadelphia, PA

Recording Info:
SBD -> (Stereo Feed From Charlie Miller's House Mix) + (Stage) Schoeps CMC6/MK4 ->
Sound Devices 744T (24bit/48k) -> Samplitude Professional v11.2 -> FLAC/16
(2 Discs Audio / 2 Discs FLAC)

Recorded, Mixed and Mastered By Charlie Miller
charlie@theheavypets.org

Setlist:
t01 - Dew Point
t02 - 3AM
t03 - Earth Chaser
t04 - Take Me Home Country Roads
t05 - Keep Me Running
t06 - Megaphone
t07 - Slow Down
t08 - Lakeview ->
t09 - So Thank You Music ->
t10 - Lakeview
t11 - Operation Of Flight
t12 - Bibbles
t13 - Drenched

Encore:
t14 - Chew
t15 - Help Me Help You


SHNTOOL OUTPUT:
length expanded size cdr WAVE problems filename
13:37.15 144154124 --- -- ----- thp2011-12-02t01_Dew_Point.wav
11:18.33 119676860 --- -- ----- thp2011-12-02t02_3AM.wav
8:04.07 85394108 --- -- ----- thp2011-12-02t03_Earth_Chaser.wav
3:10.50 33633644 --- -- ----- thp2011-12-02t04_Take_Me_Home_Country_Roads.wav
8:39.61 91695116 --- -- ----- thp2011-12-02t05_Keep_Me_Running.wav
4:04.61 43185116 --- -- ----- thp2011-12-02t06_Megaphone.wav
8:16.14 87527372 --- -- ----- thp2011-12-02t07_Slow_Down.wav
7:48.72 82724588 --- -- ----- thp2011-12-02t08_Lakeview.wav
9:19.51 98727596 --- -- ----- thp2011-12-02t09_So_Thank_You_Music.wav
3:23.05 35821004 --- -- ----- thp2011-12-02t10_Lakeview.wav
3:49.51 40515596 --- -- ----- thp2011-12-02t11_Operation_Of_Flight.wav
18:02.09 190886012 --- -- ----- thp2011-12-02t12_Bibbles.wav
6:03.15 64068524 --- -- ----- thp2011-12-02t13_Drenched.wav
6:40.73 70731740 --- -- ----- thp2011-12-02t14_Chew.wav
9:19.12 98635868 --- -- ----- thp2011-12-02t15_Help_Me_Help_You.wav
121:38.04 1287377268 B (totals for 15 files)
Checksumsd68f933b6f21e81043608ddd08a3dd21 *thp2011-12-02t01_Dew_Point.flac
34ae978e62b41bea79949d81283c800f *thp2011-12-02t02_3AM.flac
f26c30e8ef3262aff4a1d4c626f19929 *thp2011-12-02t03_Earth_Chaser.flac
11231a8c019528c37418e7f9904177af *thp2011-12-02t04_Take_Me_Home_Country_Roads.flac
00a9eb60d76da3e21b43ef0437d97a82 *thp2011-12-02t05_Keep_Me_Running.flac
98a7d959a054f95c8d21d0609fe85b63 *thp2011-12-02t06_Megaphone.flac
336df26fe796ae31307c8c200d755fbc *thp2011-12-02t07_Slow_Down.flac
1811c2bcde44eb0f720d1d5fce76be9a *thp2011-12-02t08_Lakeview.flac
972c5462e485e51654c330695bf44358 *thp2011-12-02t09_So_Thank_You_Music.flac
6f03daabd51792d74af0b3c8494b6baf *thp2011-12-02t10_Lakeview.flac
2cd4b3da48b4efdeebd58c951b452b56 *thp2011-12-02t11_Operation_Of_Flight.flac
d5f4eec88cd64b105ff1d05e6a99b085 *thp2011-12-02t12_Bibbles.flac
f6accde8047f578c597eee3f67bc0263 *thp2011-12-02t13_Drenched.flac
f83dc5c2ba394196b7e8f7c2082e38b8 *thp2011-12-02t14_Chew.flac
55d1bc443ae80d9ee3dc336fe4db65e8 *thp2011-12-02t15_Help_Me_Help_You.flac
TypeThe Heavy Pets
Last seederLast activity 9:44 ago
Size753.38 MB (789971676 Bytes)
Added2011-12-08 10:03:02
Views0
Hits4196
Snatched40 times
Upped byWHARFRAT73
Num files18 files
File List
[Hide list]
filenamesizemd5
thp2011-12-02t12_Bibbles.flac116.31 MBN/A
thp2011-12-02t01_Dew_Point.flac87.44 MBN/A
thp2011-12-02t02_3AM.flac67.19 MBN/A
thp2011-12-02t09_So_Thank_You_Music.flac60.58 MBN/A
thp2011-12-02t15_Help_Me_Help_You.flac57.15 MBN/A
thp2011-12-02t05_Keep_Me_Running.flac52.94 MBN/A
thp2011-12-02t03_Earth_Chaser.flac52.18 MBN/A
thp2011-12-02t07_Slow_Down.flac47.62 MBN/A
thp2011-12-02t08_Lakeview.flac46.15 MBN/A
thp2011-12-02t14_Chew.flac44.34 MBN/A
thp2011-12-02t13_Drenched.flac34.67 MBN/A
thp2011-12-02t06_Megaphone.flac23.43 MBN/A
thp2011-12-02t11_Operation_Of_Flight.flac23.20 MBN/A
thp2011-12-02t10_Lakeview.flac22.42 MBN/A
thp2011-12-02t04_Take_Me_Home_Country_Roads.flac17.78 MBN/A
thp2011-12-02.117547.txt2.0 kBN/A
thp2011-12-02.md51.0 kBN/A
thp2011-12-02.ffp1.0 kBN/A
Peers
[See full list]
0 seeders, 1 leecher = 1 peer total

Add a comment

sframe 2011-12-08 11:05:55
Haven't heard these guys yet. Thanks for sharing.
Tomahawk Kid 2011-12-08 16:41:50
SO THANK YOU for the MUSIC!

Add a comment


http://etree.org : http://db.etree.org : http://forums.etree.org : http://wiki.etree.org : Legal : RSS Feed

Contents designed & maintained by the etree.org volunteers
1998-2014, etree.org, except where noted. All Rights Reserved.
Read our terms of service and privacy guidelines