bt.etree.org
etree.org Community Bittorrent Tracker
ArtistOther
Showmatt chamberlain with bill frisell and jon brion - los angeles, ca - may 30, 2012 (residency night 5/5)
Report this as
non-Trade-Friendly
Email us
Torrentmchamberlain2012-05-30c422flac16.torrent (click to download)
Downloads asmchamberlain2012-05-30c422.flac16
Info hashb560215f124553b2f223fc1bd19a9aceb7220c6b
DescriptionMatt Chamberlain
The Mint (6010 West Pico Boulevard, Los Angeles, CA 90035)
Wednesday, May 30, 2012



AKG c422 > s42 > Grace Design Lunatec V2 > Sonic AD2K+ > Roland R-44

Location: ~Center, ~15' back, ~8' Matthellini clamp, magic finger, extension pole, nanoclamp
Mic Config: X/Y (supercardiod)
Record Format: 24-bit, 96 kHz
Transfer: SDHC card > USB 2.0 card reader > MacBook Air
Edits: quadratic (linear) fades, change gain +3.7 db (set 1) +2.5 db (set 2), invert phase (Wave Editor 1.5.7)
Tracking (Wave Editor 1.5.7)
Resample: Ultra-steep, Linear Phase (Izotope ReSampler/Wave Editor 1.5.7)
Dither: Ultra Shape, High Amount (MBIT+/Wave Editor 1.5.7)
Final Format: 16-bit, 44.1 kHz
Encode, Verify: xACT
Tagging, etc.: Live Show Tagger, ReplayGain (foobar2000)



01. (set one)
02.
03.
04.
05.
06.
07.
08. (set two)
09.
10.
11.
12.
13.
14.
15.
16.



with Bill Frisell and Jon Brion



length expanded size cdr WAVE problems fmt ratio filename
0:14.28 2535500 B --- -- ----- wav 1.0000 mchamberlain2012-05-30c422d1t 01.wav
8:08.58 86219660 B --- -- ----- wav 1.0000 mchamberlain2012-05-30c422d1t 02.wav
2:57.22 31274588 B --- -- ----- wav 1.0000 mchamberlain2012-05-30c422d1t 03.wav
7:06.43 75247580 B --- -- ----- wav 1.0000 mchamberlain2012-05-30c422d1t 04.wav
5:35.27 59157548 B --- -- ----- wav 1.0000 mchamberlain2012-05-30c422d1t 05.wav
12:07.18 128285180 B --- -- ----- wav 1.0000 mchamberlain2012-05-30c422d1t 06.wav
14:43.01 155763596 B --- -- ----- wav 1.0000 mchamberlain2012-05-30c422d1t 07.wav
0:20.71 3695036 B --- -- ----- wav 1.0000 mchamberlain2012-05-30c422d2t 01.wav
9:20.31 98856956 B --- -- ----- wav 1.0000 mchamberlain2012-05-30c422d2t 02.wav
10:38.67 112700828 B --- -- ----- wav 1.0000 mchamberlain2012-05-30c422d2t 03.wav
9:33.05 101089004 B --- -- ----- wav 1.0000 mchamberlain2012-05-30c422d2t 04.wav
7:35.38 80351420 B --- -- ----- wav 1.0000 mchamberlain2012-05-30c422d2t 05.wav
10:31.46 111416636 B --- -- ----- wav 1.0000 mchamberlain2012-05-30c422d2t 06.wav
8:29.51 89907596 B --- -- ----- wav 1.0000 mchamberlain2012-05-30c422d2t 07.wav
12:11.62 129094268 B --- -- ----- wav 1.0000 mchamberlain2012-05-30c422d2t 08.wav
10:26.40 110520524 B --- -- ----- wav 1.0000 mchamberlain2012-05-30c422d2t 09.wav
130:01.08 1376115920 B 1.0000 (16 files)



### FREE ###
The musicians allowed this recording for FREE.
PLEASE...
- Only share this recording with others for FREE.
- Do NOT sell or trade this recording for profit of any kind.

### SUPPORT MUSICIANS ###
Help ensure live recordings remain easily accessible and FREE by supporting the musicians:
- attend their live shows
- purchase their dry goods
- buy their studio releases

For more information on the musicians, their tours, and
studio recordings visit http://www.mattchamberlain.com/



++ recorded, transferred and uploaded to bt.etree by macdaddy (June 1, 2012)
Checksumsmchamberlain2012-05-30c422d1t 01.flac:361c9eb46fd4feda5b0b1f9f3a57e982<br />
mchamberlain2012-05-30c422d1t 02.flac:9d756c70983a5619825bc9a7cbac1c1b<br />
mchamberlain2012-05-30c422d1t 03.flac:4d229108bfd674699dcfa9702ee0e0d0<br />
mchamberlain2012-05-30c422d1t 04.flac:a14687f90eee684412428150e45292b0<br />
mchamberlain2012-05-30c422d1t 05.flac:85f3f43d070ee781955924b319b14823<br />
mchamberlain2012-05-30c422d1t 06.flac:e7c4cd2c1532a53fee53c1dc7f0f7bf0<br />
mchamberlain2012-05-30c422d1t 07.flac:518a0a24be2c009cf3e74389b311d250<br />
mchamberlain2012-05-30c422d2t 01.flac:4eb1a44ac3288e360fb53137958fb2d6<br />
mchamberlain2012-05-30c422d2t 02.flac:8a489a2f53157830b75c67b0a92ab6cf<br />
mchamberlain2012-05-30c422d2t 03.flac:6367d9ce221ab78da2f4ef23d1ec6a84<br />
mchamberlain2012-05-30c422d2t 04.flac:14fb55ed2192bba352e53c6878a5a4f7<br />
mchamberlain2012-05-30c422d2t 05.flac:792f0705ada8cf3745811c582a0ec301<br />
mchamberlain2012-05-30c422d2t 06.flac:f88f3dc631ed28687e6bc2716841c560<br />
mchamberlain2012-05-30c422d2t 07.flac:28ab1d93b057af7ed69a52f07773267c<br />
mchamberlain2012-05-30c422d2t 08.flac:71744a5baff27111e0839e0b6c92af93<br />
mchamberlain2012-05-30c422d2t 09.flac:4f06dd5adba020a2b9c0dfa0a2eb8ef6
TypeOther
Last seederLast activity 1 day, 15:45:17 ago
Size584.03 MB (612401592 Bytes)
Added2012-06-02 04:39:00
Views0
Hits351
Snatched160 times
Upped bymacdaddys.info
Num files
[See full list]
19 files
Peers
[See full list]
1 seeder, 0 leechers = 1 peer total

Add a comment

Halowdance 2012-06-02 04:58:03
Thank you Mac!!!
macdaddys.info 2012-06-02 08:44:56
night 1 of the residency is available here:

http://bt.etree.org/details.php?id=555472
macdaddys.info 2012-06-02 14:11:41
the second night of the residency (with Mike Dillon, Blake Mills and Mike Elizondo) is here:

http://bt.etree.org/details.php?id=555487
Reelboy 2012-06-02 15:46:59
Thank you very much!
jeetyet 2012-06-02 15:53:49
10 Q for half of the floratone quartet....love the fris....
jdmatt68 2012-06-02 19:08:28
excellent!! thanks for taping and sharing these shows!!!

Add a comment


http://etree.org : http://db.etree.org : http://forums.etree.org : http://wiki.etree.org : Legal : RSS Feed

Contents designed & maintained by the etree.org volunteers
1998-2014, etree.org, except where noted. All Rights Reserved.
Read our terms of service and privacy guidelines