bt.etree.org
etree.org Community Bittorrent Tracker
ArtistPhish
ShowPhish Bader Field Atlantic City, New Jersey 6/17/2012 (Schoeps CCM4V'S FOB)
Report this as
non-Trade-Friendly
Email us
Torrentphish2012-06-17.flac16.torrent (click to download)
Downloads asphish2012-06-17.flac16
Info hash910a1d509b42c119afcbfe898b6b386512fd7b4e
db linkhttp://db.etree.org/shn/120765 | Show | Source
DescriptionPhish
Bader Field
Atlantic City, New Jersey
6/17/2012

Source: Schoeps CCM4V'S(din)>Lunatec V2>Benchmark AD2K>
Sound Devices 722 (24/48)
FOB/DFC/KFC/ZFC/AARP 42' From Stage, 6' High
DSP: Sound Devices 722>Sound Forge 9.0>CD Wave>flac(16)
Recorded By: Z-Man
Seeded By: Z-Man

Disc I 1st Set

01 Crowd/Tuning
02 *Brother
03 *Introduction Of All The Band's Kids
04 Runaway Jim
05 Dogs Stole Things
06 Boogie On Raggae Woman >
07 NICU
08 Foam >
09 Wilson >
10 Timber
11 Trey Banter

Disc II 1st Set Con't

01 Fluffhead >
02 Fluffhead's Travels >
03 Fluffhead
04 Walls Of The Cave
05 Character Zero
2nd Set:
06 Crowd/Tuning
07 Drowned >
08 Also Sprach Zarathustra >
09 Reba

Disc III 2nd Set Con't

01 Roses Are Free >
02 Chalkdust Torture >
03 Prince Caspian >
04 Silent In The Morning
05 Bug >
06 A Day In The Life >
07 Down With Disease
Encore:
08 Gotta Jibboo
09 Quinn The Eskimo

* With All Of The Band Members Children On Stage

Flac Fingerprint

phish2012-06-17d01t01.flac:24163ce4b11e350db30e2e79e354d523
phish2012-06-17d01t02.flac:fd114f7176c677006b1304105f3db8b7
phish2012-06-17d01t03.flac:9ae83ca709f3c3a035f4f14086b0948e
phish2012-06-17d01t04.flac:dff0f57f0a4a67ea80b68be918177c03
phish2012-06-17d01t05.flac:35334bc4e46307004e284ae9aa9d592d
phish2012-06-17d01t06.flac:009485263aa8b6e427e3e83e34a53f34
phish2012-06-17d01t07.flac:cb6db50b1368b31436d1b716ed58f2a3
phish2012-06-17d01t08.flac:1d5992e87d84eaaa3a21d38d0f2b1cc9
phish2012-06-17d01t09.flac:b094e99f00dc932edd39421268bd5a74
phish2012-06-17d01t10.flac:3709d925fdd214adccbe864e06af414f
phish2012-06-17d01t11.flac:1c8fa80e704abc914f3e2acc66fe337a
phish2012-06-17d02t01.flac:72813c631792080039624b35ab1b9d90
phish2012-06-17d02t02.flac:13e7bcbacb648901debfd8118b72a665
phish2012-06-17d02t03.flac:5dc2c71181d5ce3dd099cfaf23cbf5fa
phish2012-06-17d02t04.flac:1d1f144b1ccc95b594b7dc016a0b6d09
phish2012-06-17d02t05.flac:dd12aad851a548ace5e20b13a74f18c5
phish2012-06-17d02t06.flac:505372331edf0aea24ed95219124b29e
phish2012-06-17d02t07.flac:261ca777e6466aae2d344d7a1394c32a
phish2012-06-17d02t08.flac:b6d2b12a1fd2b16c22dbb0312c8474a7
phish2012-06-17d02t09.flac:e5ca531ae3b7be7c02c832d6fb418932
phish2012-06-17d03t01.flac:3db0e3012171f63bbc351d1f4ce43b19
phish2012-06-17d03t02.flac:4a85a0fc7d71b8598f2658fcd40b4538
phish2012-06-17d03t03.flac:882a04bba673c0e1c5d3ba3095e189d4
phish2012-06-17d03t04.flac:f4eb4fb3a38808217b186a071186c25b
phish2012-06-17d03t05.flac:0264448530e54eda168445e6ec79cc75
phish2012-06-17d03t06.flac:8849f92350dbff4f6eaf9e4b1a4fb898
phish2012-06-17d03t07.flac:44c9c89cde664461ee22f9e63db717db
phish2012-06-17d03t08.flac:beccb5f8f742d961109c498387e5f213
phish2012-06-17d03t09.flac:3d5272c95957780de85e16674b4bd731

Shntool

length expanded size cdr WAVE problems fmt ratio filename
0:21.72 3873788 B --- -- ---xx flac 0.3909 phish2012-06-17d01t01.flac
4:59.59 52882412 B --- -- ---xx flac 0.5087 phish2012-06-17d01t02.flac
1:20.13 14142620 B --- -- ---xx flac 0.4214 phish2012-06-17d01t03.flac
7:24.56 78453356 B --- -- ---xx flac 0.4791 phish2012-06-17d01t04.flac
4:52.47 51619388 B --- -- ---xx flac 0.4500 phish2012-06-17d01t05.flac
5:44.52 60803948 B --- -- ---xx flac 0.4610 phish2012-06-17d01t06.flac
5:02.53 53397500 B --- -- ---xx flac 0.4825 phish2012-06-17d01t07.flac
8:47.70 93127484 B --- -- ---xx flac 0.4381 phish2012-06-17d01t08.flac
4:18.48 45624140 B --- -- ---xx flac 0.5011 phish2012-06-17d01t09.flac
6:52.02 72681548 B --- -- ---xx flac 0.4649 phish2012-06-17d01t10.flac
3:13.00 34045244 B --- -- ---xx flac 0.3504 phish2012-06-17d01t11.flac
11:42.65 123985724 B --- -- ---xx flac 0.4503 phish2012-06-17d02t01.flac
1:12.18 12743180 B --- -- ---xx flac 0.5094 phish2012-06-17d02t02.flac
3:02.36 32189516 B --- -- ---xx flac 0.5196 phish2012-06-17d02t03.flac
12:13.13 129331820 B --- -- ---xx flac 0.4766 phish2012-06-17d02t04.flac
7:21.33 77870060 B --- -- ---xx flac 0.5105 phish2012-06-17d02t05.flac
0:28.31 5012156 B --- -- ---xx flac 0.3012 phish2012-06-17d02t06.flac
10:21.72 109713788 B --- -- ---xx flac 0.4725 phish2012-06-17d02t07.flac
8:17.65 87823724 B --- -- ---xx flac 0.4635 phish2012-06-17d02t08.flac
12:49.16 135689276 B --- -- ---xx flac 0.4381 phish2012-06-17d02t09.flac
5:17.55 56048204 B --- -- ---xx flac 0.4835 phish2012-06-17d03t01.flac
9:22.28 99202700 B --- -- ---xx flac 0.4860 phish2012-06-17d03t02.flac
3:53.06 41115356 B --- -- ---xx flac 0.4354 phish2012-06-17d03t03.flac
5:27.28 57748700 B --- -- ---xx flac 0.4337 phish2012-06-17d03t04.flac
8:51.24 93724892 B --- -- ---xx flac 0.4565 phish2012-06-17d03t05.flac
5:29.45 58141484 B --- -- ---xx flac 0.4598 phish2012-06-17d03t06.flac
7:42.40 81590924 B --- -- ---xx flac 0.5102 phish2012-06-17d03t07.flac
9:40.06 102326156 B --- -- ---xx flac 0.4491 phish2012-06-17d03t08.flac
6:29.34 68699612 B --- -- ---xx flac 0.4883 phish2012-06-17d03t09.flac
182:41.37 1933608700 B 0.4661 (29 files)










Checksumsphish2012-06-17d01t01.flac:24163ce4b11e350db30e2e79e354d523
phish2012-06-17d01t02.flac:fd114f7176c677006b1304105f3db8b7
phish2012-06-17d01t03.flac:9ae83ca709f3c3a035f4f14086b0948e
phish2012-06-17d01t04.flac:dff0f57f0a4a67ea80b68be918177c03
phish2012-06-17d01t05.flac:35334bc4e46307004e284ae9aa9d592d
phish2012-06-17d01t06.flac:009485263aa8b6e427e3e83e34a53f34
phish2012-06-17d01t07.flac:cb6db50b1368b31436d1b716ed58f2a3
phish2012-06-17d01t08.flac:1d5992e87d84eaaa3a21d38d0f2b1cc9
phish2012-06-17d01t09.flac:b094e99f00dc932edd39421268bd5a74
phish2012-06-17d01t10.flac:3709d925fdd214adccbe864e06af414f
phish2012-06-17d01t11.flac:1c8fa80e704abc914f3e2acc66fe337a
phish2012-06-17d02t01.flac:72813c631792080039624b35ab1b9d90
phish2012-06-17d02t02.flac:13e7bcbacb648901debfd8118b72a665
phish2012-06-17d02t03.flac:5dc2c71181d5ce3dd099cfaf23cbf5fa
phish2012-06-17d02t04.flac:1d1f144b1ccc95b594b7dc016a0b6d09
phish2012-06-17d02t05.flac:dd12aad851a548ace5e20b13a74f18c5
phish2012-06-17d02t06.flac:505372331edf0aea24ed95219124b29e
phish2012-06-17d02t07.flac:261ca777e6466aae2d344d7a1394c32a
phish2012-06-17d02t08.flac:b6d2b12a1fd2b16c22dbb0312c8474a7
phish2012-06-17d02t09.flac:e5ca531ae3b7be7c02c832d6fb418932
phish2012-06-17d03t01.flac:3db0e3012171f63bbc351d1f4ce43b19
phish2012-06-17d03t02.flac:4a85a0fc7d71b8598f2658fcd40b4538
phish2012-06-17d03t03.flac:882a04bba673c0e1c5d3ba3095e189d4
phish2012-06-17d03t04.flac:f4eb4fb3a38808217b186a071186c25b
phish2012-06-17d03t05.flac:0264448530e54eda168445e6ec79cc75
phish2012-06-17d03t06.flac:8849f92350dbff4f6eaf9e4b1a4fb898
phish2012-06-17d03t07.flac:44c9c89cde664461ee22f9e63db717db
phish2012-06-17d03t08.flac:beccb5f8f742d961109c498387e5f213
phish2012-06-17d03t09.flac:3d5272c95957780de85e16674b4bd731
TypePhish
Last seederLast activity 2:02 ago
Size859.48 MB (901233546 Bytes)
Added2012-06-18 05:57:16
Views0
Hits352
Snatched160 times
Upped byzmanatl
Num files
[See full list]
30 files
Peers
[See full list]
1 seeder, 0 leechers = 1 peer total

Add a comment

jasonsobel 2012-06-18 06:22:29
I just added this to the etree database:
http://db.etree.org/shn/120765

thanks Z!
LAStubbe 2012-06-18 06:43:57
Was CK there?
tommie01 2012-06-18 08:44:14
Thanks ZMan. Boy you've been quite the busy little taper these past couple weeks - I can't even get caught up at home. Look forward to hearing all these.
bigdaddybflo 2012-06-18 09:54:24
Z-manimal !!! GO Z GO ! Can't wait to see them next weekend !! Thanks for the love.
LAStubbe 2012-06-18 11:03:07
I wonder if CK left his gear at home?
james1234567 2012-06-18 12:21:45
Thanks Z, Man did it sound good last night in that area , I was just a few feet to the right of ya. next to Video. That sure was a hell of alot of mics strapped to that stand!!!!

peace
james
sean612 2012-06-18 13:21:30
Very nice! Thanks.
sprobeck 2012-06-18 20:07:11
I'm glad they let u stay z-man!

Add a comment


http://etree.org : http://db.etree.org : http://forums.etree.org : http://wiki.etree.org : Legal : RSS Feed

Contents designed & maintained by the etree.org volunteers
1998-2014, etree.org, except where noted. All Rights Reserved.
Read our terms of service and privacy guidelines