bt.etree.org
etree.org Community Bittorrent Tracker
ArtistDavid Gans
ShowDavid Gans Marin Farmers Market Sept 16, 2012 SBD 16bit
Report this as
non-Trade-Friendly
Email us
Torrentgans2012-09-16sbd16bit.torrent (click to download)
Downloads asgans2012-09-16sbd16bit
Info hash242843f834e4babb6fe6932d3171f5fb7d33ef95
DescriptionDavid Gans - September 16, 2012
Marin Farmers Market - San Rafael, CA

Recording Info:
SBD -> Edirol R-05 (24bit/96k)

Transfer Info:
WAV (24bit/96k) -> Samplitude Professional v11.2.1 -> FLAC/16
(3 Discs Audio / 1 DVD FLAC)

Recorded By David Gans
All Mastering By Charlie Miller
charliemiller87@earthlink.net
October 1, 2012

Notes:
-- All disc changes are seamless

Set 1:
d1t01 - San Rafael Swell ->
d1t02 - Crazy Crazy Crazy
d1t03 - Scarlet Begonias
d1t04 - Row Jimmy
d1t05 - Solitary Man ->
d1t06 - Afterbird ->
d1t07 - Jack-A-Roe
d1t08 - Williní
d1t09 - Things We Said Today ->
d1t10 - Pancho And Lefty
d1t11 - Stagger Lee

Set 2:
d1t12 - Four Strong Winds
d1t13 - Cassidyís Cat
d1t14 - Thatís Real Love
d2t01 - Save Us From The Saved ->
d2t02 - Terrapin Station ->
d2t03 - Within You Without You
d2t04 - Looks Like Rain
d2t05 - Life Is A Jam->
d2t06 - Norwegian Wood

Set 3:
d2t07 - Quarter To Five (For Tina Loney)
d2t08 - New Speedway Boogie->
d2t09 - Deal->
d2t10 - Iíll Be Your Baby Tonight
d2t11 - Ship Of Fools ->
d2t12 - In Another World
d3t01 - Ripple
d3t02 - Dawnís Early Light ->
d3t03 - For Everyman
d3t04 - Watching The Detectives ->
d3t05 - Loser
d3t06 - The Bounty Of The County
d3t07 - Long-Term Love
d3t08 - Who Killed Uncle John?
d3t09 - Eve Of Destruction ->
d3t10 - Itís Gonna Get Better
d3t11 - Shove In The Right Direction
d3t12 - Brokedown Palace
d3t13 - Lazy River Road


SHNTOOL OUTPUT:
length expanded size cdr WAVE problems fmt ratio filename
5:23.69 57139532 B --- -- ---xx flac 0.5052 gans2012-09-16d1t01.flac
4:47.61 50770316 B --- -- ---xx flac 0.5917 gans2012-09-16d1t02.flac
5:01.45 53202284 B --- -- ---xx flac 0.5582 gans2012-09-16d1t03.flac
6:53.53 72977900 B --- -- ---xx flac 0.5467 gans2012-09-16d1t04.flac
2:52.39 30432572 B --- -- ---xx flac 0.5746 gans2012-09-16d1t05.flac
6:48.73 72142940 B --- -- ---xx flac 0.5743 gans2012-09-16d1t06.flac
5:24.23 57207740 B --- -- ---xx flac 0.5823 gans2012-09-16d1t07.flac
4:16.19 45203132 B --- -- ---xx flac 0.5528 gans2012-09-16d1t08.flac
5:59.32 63402908 B --- -- ---xx flac 0.5468 gans2012-09-16d1t09.flac
5:42.49 60444092 B --- -- ---xx flac 0.5291 gans2012-09-16d1t10.flac
4:18.63 45659420 B --- -- ---xx flac 0.5923 gans2012-09-16d1t11.flac
4:10.71 44267036 B --- -- ---xx flac 0.5377 gans2012-09-16d1t12.flac
8:52.07 93861308 B --- -- ---xx flac 0.4965 gans2012-09-16d1t13.flac
2:35.69 27504332 B --- -- ---xx flac 0.5444 gans2012-09-16d1t14.flac
5:25.21 57379436 B --- -- ---xx flac 0.5517 gans2012-09-16d2t01.flac
7:33.14 79942172 B --- -- ---xx flac 0.5818 gans2012-09-16d2t02.flac
6:26.73 68262140 B --- -- ---xx flac 0.5905 gans2012-09-16d2t03.flac
9:28.28 100261100 B --- -- ---xx flac 0.5204 gans2012-09-16d2t04.flac
4:04.32 43116908 B --- -- ---xx flac 0.6285 gans2012-09-16d2t05.flac
6:36.49 69969692 B --- -- ---xx flac 0.5228 gans2012-09-16d2t06.flac
7:07.07 75339308 B --- -- ---xx flac 0.5819 gans2012-09-16d2t07.flac
5:58.30 63221804 B --- -- ---xx flac 0.5819 gans2012-09-16d2t08.flac
5:02.07 53289308 B --- -- ---xx flac 0.5900 gans2012-09-16d2t09.flac
4:46.50 50568044 B --- -- ---xx flac 0.5316 gans2012-09-16d2t10.flac
4:19.68 45847580 B --- -- ---xx flac 0.4839 gans2012-09-16d2t11.flac
7:37.11 80640716 B --- -- ---xx flac 0.5761 gans2012-09-16d2t12.flac
5:32.66 58720076 B --- -- ---xx flac 0.5604 gans2012-09-16d3t01.flac
5:46.27 61097948 B --- -- ---xx flac 0.5255 gans2012-09-16d3t02.flac
4:51.59 51471212 B --- -- ---xx flac 0.5509 gans2012-09-16d3t03.flac
5:40.57 60110108 B --- -- ---xx flac 0.5771 gans2012-09-16d3t04.flac
7:31.52 79678748 B --- -- ---xx flac 0.5331 gans2012-09-16d3t05.flac
4:43.01 49923596 B --- -- ---xx flac 0.5622 gans2012-09-16d3t06.flac
2:46.71 29449436 B --- -- ---xx flac 0.5731 gans2012-09-16d3t07.flac
5:59.65 63480524 B --- -- ---xx flac 0.5462 gans2012-09-16d3t08.flac
1:24.11 14843516 B --- -- ---xx flac 0.6038 gans2012-09-16d3t09.flac
4:37.74 49036892 B --- -- ---xx flac 0.5860 gans2012-09-16d3t10.flac
4:08.17 43787228 B --- -- ---xx flac 0.6234 gans2012-09-16d3t11.flac
6:30.07 68812508 B --- -- ---xx flac 0.5356 gans2012-09-16d3t12.flac
5:36.42 59369228 B --- -- ---xx flac 0.5582 gans2012-09-16d3t13.flac
212:45.37 2251834740 B 0.5559 (39 files)
Checksumsc20f4ffec107164999df397ea437f358 *gans2012-09-16d1t01.flac
a15bd2899569fc51731f0f29e241b50f *gans2012-09-16d1t02.flac
a34cd8079e71f0ef474a992071e66dd6 *gans2012-09-16d1t03.flac
6a64e43180d91b45f4ce7fba51cb1d2b *gans2012-09-16d1t04.flac
c850520c1e7446fce2b0f515572fd798 *gans2012-09-16d1t05.flac
a1aa99a0d93ef685e6aa24523d6cf6f0 *gans2012-09-16d1t06.flac
09ea75e700aecf5db7a325a1386b05f1 *gans2012-09-16d1t07.flac
90aae029058aefc1b02ebcf62c558dc5 *gans2012-09-16d1t08.flac
0744db290ccebfb6ad7c59dbbc4ad799 *gans2012-09-16d1t09.flac
35eacd9150dbfc8d943e1f31b079f2db *gans2012-09-16d1t10.flac
463cbd3eb9f43c426d45411f5afa6ac3 *gans2012-09-16d1t11.flac
bb44ef636ca67216e24877476a834eee *gans2012-09-16d1t12.flac
af0571730b58197299eac28cf4715091 *gans2012-09-16d1t13.flac
bb0b78b07f5f3a393bb467c526f55749 *gans2012-09-16d1t14.flac
a754a92247c4596436d4f11d33b641c0 *gans2012-09-16d2t01.flac
0f68d2f27e8c2c5d923454dddccb74a3 *gans2012-09-16d2t02.flac
140122d525f325db456eddb6add3c181 *gans2012-09-16d2t03.flac
6636a31204407882f45c2cb56406c64b *gans2012-09-16d2t04.flac
1c28211b2dd5804c11efbc92024b8864 *gans2012-09-16d2t05.flac
45e990b3fc912eaa15dd67f3e8f41ccd *gans2012-09-16d2t06.flac
ce3a42a27a9e4ce2eccad4306a06bc05 *gans2012-09-16d2t07.flac
fd4172883b287f8354b75a73b5063ce9 *gans2012-09-16d2t08.flac
29461a0ccff83342be5337c2add65a8e *gans2012-09-16d2t09.flac
80027edacfd46c5487ee83913233fa29 *gans2012-09-16d2t10.flac
dee96714d7cb1d11c56d70c4c0acbc11 *gans2012-09-16d2t11.flac
4e260f1aa7c7c527f75f8f702cba614b *gans2012-09-16d2t12.flac
f65689670c92ada53b77a514354cc80d *gans2012-09-16d3t01.flac
288fca92938206234406f2d74c873a75 *gans2012-09-16d3t02.flac
5432bf3431930942192588922e4b415c *gans2012-09-16d3t03.flac
6f7cf288156499c69718933883a684dc *gans2012-09-16d3t04.flac
8c25262b2a9cc40bc5802fded50842ae *gans2012-09-16d3t05.flac
c309a8eb7af698a53f8fe5bfd484abca *gans2012-09-16d3t06.flac
b8b41cbfd848540313cec367752e29fc *gans2012-09-16d3t07.flac
da9994c07fdd39cb3c50b5732523d4f8 *gans2012-09-16d3t08.flac
96437b56ccba282552e425a6037f3419 *gans2012-09-16d3t09.flac
30ff2e9cc6ab8f88d115bb6fefcf0017 *gans2012-09-16d3t10.flac
49d106a289c66aebebbd6c99474bfa94 *gans2012-09-16d3t11.flac
0103a3ede03d760928b357a6efef20de *gans2012-09-16d3t12.flac
c9260dcf429ae68b348033be8ebd8c55 *gans2012-09-16d3t13.flac
TypeDavid Gans
Last seederLast activity 31:06 ago
Size1.166 GB (1251887644 Bytes)
Added2012-10-01 14:35:41
Views0
Hits556
Snatched145 times
Upped bycharlie miller
Num files
[See full list]
42 files
Peers
[See full list]
2 seeders, 0 leechers = 2 peers total

Add a comment

mgouker 2012-10-01 15:01:12
YAY!
_MULETAPER 2012-10-02 10:34:03
where did the 24 bit go....? I could care less about the 16.
_MULETAPER 2012-10-02 10:35:01
my bad...wrong torrent.

thanks Mr. Charlie.
dennisthorough 2012-10-02 13:20:33
Is It's Gonna Get Better a Genesis cover from the 83 "Genesis" (also knows as Mama) record?

Add a comment


http://etree.org : http://db.etree.org : http://forums.etree.org : http://wiki.etree.org : Legal : RSS Feed

Contents designed & maintained by the etree.org volunteers
© 1998-2014, etree.org, except where noted. All Rights Reserved.
Read our terms of service and privacy guidelines