bt.etree.org
etree.org Community Bittorrent Tracker
ArtistGovt Mule
ShowGov't Mule Orpheum Theatre Boston, Massachusetts 10/26/2012 (Schoeps CCM4V'S FOB)
Report this as
non-Trade-Friendly
Email us
Torrentgovtmule2012-10-26.flac16.torrent (click to download)
Downloads asgovtmule2012-10-26.flac16
Info hashce4f39e7a09d91a4d1b3f58ac87e8cef8e6819b4
db linkhttp://db.etree.org/shn/122566 | Show | Source
DescriptionGov't Mule
Orpheum Theatre
Boston, Massachusetts
10/26/2012

Source: Schoeps CCM4V'S(din)>Lunatec V2>Benchmark AD2K>
Sound Devices 722 (24/48)
FOB/DRFC/KFC/ZFC/AARP Right Center Section, Row RR, Seat 122, 6 1/2' High
DSP: Sound Devices 722>Sound Forge 9.0>CD Wave>flac(16)
Recorded By: Z-Man
Seeded By: Z-Man

Disc I 1st Set

01 Jam >
02 Any Open Window >
03 Steppin' Lightly
04 Bad Little Doggie >
05 Lola Leave Your Light On >
06 Lay Your Burden Down
07 Unring The Bell
08 Endless Parade
09 Thorazine Shuffle

Disc II 2nd Set

01 One Of These Days >
02 Bus Stop >
03 Larger Than Life >
04 Presence Of The Lord >
05 Beautifully Broken >
06 Lively Up Yourself >
07 Drum Solo >

Disc III 2nd Set Con't

01 Drums And Bass Duet >
02 I Shall Return >
03 Drift Away >
04 I Shall Return >
05 Soulshine >
06 Mule >
07 Whole Lotta Love >
08 Mule
Encore:
09 Thanks/Banter
10 *John The Revelator >
11 *Feel Like Breakin' Up Someone's Home

* With Roosevelt Collier Of The Lee Boys On Lap Steel

Flac Fingerprint

govtmule2012-10-26d01t01.flac:48b93754ce447700dfd115fdf2ad14b1
govtmule2012-10-26d01t02.flac:32749c8981950643310ddbd5b6b877f6
govtmule2012-10-26d01t03.flac:ab05c69d67d3b8da3445283ed7f39a28
govtmule2012-10-26d01t04.flac:d35a9463cdc72b15fc564633478b1cdd
govtmule2012-10-26d01t05.flac:b17b9c9c3a4bed34d8793a75f6246d6a
govtmule2012-10-26d01t06.flac:f886379103edb0b4e8f02655b0ac87c1
govtmule2012-10-26d01t07.flac:97fde1e99a36ef5459271b448cec95b4
govtmule2012-10-26d01t08.flac:9c0b5bd8f85f65853216c37a19f081fe
govtmule2012-10-26d01t09.flac:610f0d5e5517496d838360d8b797f842
govtmule2012-10-26d02t01.flac:1eaed79bd6e40ff00242404915b59dbc
govtmule2012-10-26d02t02.flac:11cea47fab190346f0cc34f84be0a609
govtmule2012-10-26d02t03.flac:dabc9d29e391543ecce5970b36d7288e
govtmule2012-10-26d02t04.flac:7cae9b89f295daba07ac66479512c5d8
govtmule2012-10-26d02t05.flac:7929f5bbad53e800aac4cef2f7d27231
govtmule2012-10-26d02t06.flac:a78aa7bc01f2e913ab0192e182eacfe8
govtmule2012-10-26d02t07.flac:321e6a5588a2455d8e7ce76868f15169
govtmule2012-10-26d03t01.flac:05ce22cbf1fff805ccf8f8f0faa744d0
govtmule2012-10-26d03t02.flac:7075dd8073cc808cc8dac599238681d9
govtmule2012-10-26d03t03.flac:e20326cdab88a968c181e048ac687854
govtmule2012-10-26d03t04.flac:49a0183bb3106ea7783af36630e94039
govtmule2012-10-26d03t05.flac:004dc5cd82090ac98468d6a9ae43b54a
govtmule2012-10-26d03t06.flac:82c07a4e619626224d043c8e0f06da64
govtmule2012-10-26d03t07.flac:5f742028a0394f02722d3a81de506af3
govtmule2012-10-26d03t08.flac:6d093f3e78cf97032c84782d955c3c99
govtmule2012-10-26d03t09.flac:cb8b6213c8f757b9bacc8bf015149c37
govtmule2012-10-26d03t10.flac:4320de64cc63df8a504086e69e5ee1a3
govtmule2012-10-26d03t11.flac:c85463932dfde45d99967878edf578b4

Shntool

length expanded size cdr WAVE problems fmt ratio filename
2:08.13 22609820 B --- -- ---xx flac 0.4156 govtmule2012-10-26d01t01.flac
5:00.13 52950620 B --- -- ---xx flac 0.5109 govtmule2012-10-26d01t02.flac
8:17.32 87746108 B --- -- ---xx flac 0.5105 govtmule2012-10-26d01t03.flac
4:06.31 43467356 B --- -- ---xx flac 0.4912 govtmule2012-10-26d01t04.flac
6:49.29 72215852 B --- -- ---xx flac 0.5002 govtmule2012-10-26d01t05.flac
6:31.19 69017132 B --- -- ---xx flac 0.4481 govtmule2012-10-26d01t06.flac
9:22.70 99301484 B --- -- ---xx flac 0.4930 govtmule2012-10-26d01t07.flac
9:24.67 99647228 B --- -- ---xx flac 0.4264 govtmule2012-10-26d01t08.flac
14:18.41 151447676 B --- -- ---xx flac 0.4795 govtmule2012-10-26d01t09.flac
7:34.19 80130332 B --- -- ---xx flac 0.4184 govtmule2012-10-26d02t01.flac
6:52.16 72714476 B --- -- ---xx flac 0.4319 govtmule2012-10-26d02t02.flac
7:02.02 74445548 B --- -- ---xx flac 0.5102 govtmule2012-10-26d02t03.flac
5:13.13 55243820 B --- -- ---xx flac 0.4790 govtmule2012-10-26d02t04.flac
7:48.10 82578764 B --- -- ---xx flac 0.4833 govtmule2012-10-26d02t05.flac
11:04.55 117259004 B --- -- ---xx flac 0.4671 govtmule2012-10-26d02t06.flac
5:04.34 53705612 B --- -- ---xx flac 0.4831 govtmule2012-10-26d02t07.flac
2:49.37 29898668 B --- -- ---xx flac 0.3669 govtmule2012-10-26d03t01.flac
6:24.40 67831724 B --- -- ---xx flac 0.4636 govtmule2012-10-26d03t02.flac
0:46.74 8288492 B --- -- ---xx flac 0.5348 govtmule2012-10-26d03t03.flac
1:25.39 15085772 B --- -- ---xx flac 0.4325 govtmule2012-10-26d03t04.flac
6:17.53 66627500 B --- -- ---xx flac 0.5030 govtmule2012-10-26d03t05.flac
6:03.08 64052060 B --- -- ---xx flac 0.4751 govtmule2012-10-26d03t06.flac
1:29.71 15866636 B --- -- ---xx flac 0.5797 govtmule2012-10-26d03t07.flac
2:47.62 29604668 B --- -- ---xx flac 0.5038 govtmule2012-10-26d03t08.flac
1:35.50 16875644 B --- -- ---xx flac 0.3694 govtmule2012-10-26d03t09.flac
8:24.19 88950332 B --- -- ---xx flac 0.4597 govtmule2012-10-26d03t10.flac
8:25.12 89110268 B --- -- ---xx flac 0.4846 govtmule2012-10-26d03t11.flac
163:08.29 1726672596 B 0.4723 (27 files)







Checksumsgovtmule2012-10-26d01t01.flac:48b93754ce447700dfd115fdf2ad14b1<br />
govtmule2012-10-26d01t02.flac:32749c8981950643310ddbd5b6b877f6<br />
govtmule2012-10-26d01t03.flac:ab05c69d67d3b8da3445283ed7f39a28<br />
govtmule2012-10-26d01t04.flac:d35a9463cdc72b15fc564633478b1cdd<br />
govtmule2012-10-26d01t05.flac:b17b9c9c3a4bed34d8793a75f6246d6a<br />
govtmule2012-10-26d01t06.flac:f886379103edb0b4e8f02655b0ac87c1<br />
govtmule2012-10-26d01t07.flac:97fde1e99a36ef5459271b448cec95b4<br />
govtmule2012-10-26d01t08.flac:9c0b5bd8f85f65853216c37a19f081fe<br />
govtmule2012-10-26d01t09.flac:610f0d5e5517496d838360d8b797f842<br />
govtmule2012-10-26d02t01.flac:1eaed79bd6e40ff00242404915b59dbc<br />
govtmule2012-10-26d02t02.flac:11cea47fab190346f0cc34f84be0a609<br />
govtmule2012-10-26d02t03.flac:dabc9d29e391543ecce5970b36d7288e<br />
govtmule2012-10-26d02t04.flac:7cae9b89f295daba07ac66479512c5d8<br />
govtmule2012-10-26d02t05.flac:7929f5bbad53e800aac4cef2f7d27231<br />
govtmule2012-10-26d02t06.flac:a78aa7bc01f2e913ab0192e182eacfe8<br />
govtmule2012-10-26d02t07.flac:321e6a5588a2455d8e7ce76868f15169<br />
govtmule2012-10-26d03t01.flac:05ce22cbf1fff805ccf8f8f0faa744d0<br />
govtmule2012-10-26d03t02.flac:7075dd8073cc808cc8dac599238681d9<br />
govtmule2012-10-26d03t03.flac:e20326cdab88a968c181e048ac687854<br />
govtmule2012-10-26d03t04.flac:49a0183bb3106ea7783af36630e94039<br />
govtmule2012-10-26d03t05.flac:004dc5cd82090ac98468d6a9ae43b54a<br />
govtmule2012-10-26d03t06.flac:82c07a4e619626224d043c8e0f06da64<br />
govtmule2012-10-26d03t07.flac:5f742028a0394f02722d3a81de506af3<br />
govtmule2012-10-26d03t08.flac:6d093f3e78cf97032c84782d955c3c99<br />
govtmule2012-10-26d03t09.flac:cb8b6213c8f757b9bacc8bf015149c37<br />
govtmule2012-10-26d03t10.flac:4320de64cc63df8a504086e69e5ee1a3<br />
govtmule2012-10-26d03t11.flac:c85463932dfde45d99967878edf578b4
TypeGovt Mule
Last seederLast activity 10:01 ago
Size777.69 MB (815469738 Bytes)
Added2012-10-27 11:11:06
Views0
Hits622
Snatched357 times
Upped byzmanatl
Num files
[See full list]
28 files
Peers
[See full list]
2 seeders, 0 leechers = 2 peers total

Add a comment

<< Prev      Next >>
1 - 20 | 21 - 22

scootertrash 2012-10-28 17:46:52
If you would stop wearing that hat w/ the Zman logo-you might have easier time at shows Grandpa!

Thanks for the show zman.
jacallery 2012-10-28 23:21:08
Thanks for this Z-man. I'm going to St Louis guess I'l have to bring the gear out of semi-retirement.

1 - 20 | 21 - 22
<< Prev      Next >>

Add a comment


http://etree.org : http://db.etree.org : http://forums.etree.org : http://wiki.etree.org : Legal : RSS Feed

Contents designed & maintained by the etree.org volunteers
1998-2014, etree.org, except where noted. All Rights Reserved.
Read our terms of service and privacy guidelines