bt.etree.org
etree.org Community Bittorrent Tracker
ArtistTrey Anastasio
ShowTrey Anastasio Band Orpheum Theatre Boston, Massachusetts 10/27/2012 (Schoeps CCM4V'S FOB)
Report this as
non-Trade-Friendly
Email us
Torrenttrey2012-10-27.flac16.torrent (click to download)
Downloads astrey2012-10-27.flac16
Info hashbe80ea16701a3da617b1c574fa6a4b90c5252f30
db linkhttp://db.etree.org/shn/122574 | Show | Source
DescriptionTrey Anastasio Band
Orpheum Theatre
Boston, Massachusetts
10/27/2012

Source: Schoeps CCM4V'S(din)>Lunatec V2>Benchmark AD2K>
Sound Devices 722 (24/48)
FOB/DRFC/KFC/ZFC/AARP Clamped To Front Of The Mezzanine, Row A, Between Seats 1 and 118
DSP: Sound Devices 722>Sound Forge 9.0>CD Wave>flac(16)
Recorded By: Z-Man
Seeded By: Z-Man

Disc I 1st Set

01 Money, Love, And Change
02 Sweet Dreams Melinda
03 Cayman Review
04 Burlap Sack And Pumps
05 Let Me Lie
06 Scabbard
07 Frost
08 Drifting

Disc II 1st Set Con't

01 Simple Twist Of Dave
02 Flock Of Words
03 Push On Til Day
2nd Set:
04 Corona
05 Gotta Jibboo
06 Valentine

Disc III 2nd Set Con't

01 Tuesday
02 Magilla
03 Pigtail >
04 Goodbye Heart >
05 Architect
06 Sand
07 Clint Eastwood
08 First Tube
Encore:
09 Show Of Life

Trey Anastasio - Guitar And Vocals
Tony Markellis - Bass
Ray Paczkowski - Keyboards
Jennifer Hartswick - Trumpet, Keyboards, And Vocals
Natalie Cressman - Trombone And Vocals
Russ Lawton - Drums
James Casey - Saxophone And Vocals
Ciro Batiste? - Percussion

Flac Fingerprint

trey2012-10-27d01t01.flac:88487e453bd3608320f9aae62a8150b4
trey2012-10-27d01t02.flac:1b373d1a683a0adb7e9e63d7d49e5889
trey2012-10-27d01t03.flac:65efcd314986a48742f1fa67e99b03c5
trey2012-10-27d01t04.flac:a013eac7b3caa5958f8e6e5dc44a9f29
trey2012-10-27d01t05.flac:56f0f1b5909e03cd800db8cd25378e32
trey2012-10-27d01t06.flac:85050175a57162fc5b054010530226a2
trey2012-10-27d01t07.flac:d1726870c07e9da0c31bcc5a634d829f
trey2012-10-27d01t08.flac:7e2989e201ac95d0d71f9f1b0d01d962
trey2012-10-27d02t01.flac:a36af026b19b93734d64c334fcf41e9f
trey2012-10-27d02t02.flac:f37fcb92aabcb74f0cbbf1ae60c75d2d
trey2012-10-27d02t03.flac:8b6fa3c6ddf5b8d65c6b98b6099930e0
trey2012-10-27d02t04.flac:3e65600fe4d5a394a25088a35f33dc25
trey2012-10-27d02t05.flac:c466e305e308b3e27400cc3697a7db83
trey2012-10-27d02t06.flac:362f3fdc0b3fe38eaa3e3e01b9173bef
trey2012-10-27d03t01.flac:e938cc0346c4636829f014bfc42672dc
trey2012-10-27d03t02.flac:33a7297d918b90a8759dbe793fc6b098
trey2012-10-27d03t03.flac:3cb1ceab6d1cae25c5d3771c60cf981e
trey2012-10-27d03t04.flac:4a7aa3841586a23464e13651e84593c0
trey2012-10-27d03t05.flac:613d15a5ad397c6b7751360bc13925ee
trey2012-10-27d03t06.flac:5108fad099c75500b739014297658856
trey2012-10-27d03t07.flac:8181cf8414ab04998624fcf42057b087
trey2012-10-27d03t08.flac:3280dae053373f5e2043d975685194b7
trey2012-10-27d03t09.flac:ee57f64b1d0c5de548b85bdc6844436a

Shntool

length expanded size cdr WAVE problems fmt ratio filename
10:27.62 110748668 B --- -- ---xx flac 0.5788 trey2012-10-27d01t01.flac
6:29.12 68647868 B --- -- ---xx flac 0.5726 trey2012-10-27d01t02.flac
6:47.37 71881868 B --- -- ---xx flac 0.5913 trey2012-10-27d01t03.flac
7:23.41 78241676 B --- -- ---xx flac 0.6296 trey2012-10-27d01t04.flac
6:14.49 66088892 B --- -- ---xx flac 0.5545 trey2012-10-27d01t05.flac
6:06.66 64717676 B --- -- ---xx flac 0.5667 trey2012-10-27d01t06.flac
6:51.18 72542780 B --- -- ---xx flac 0.5239 trey2012-10-27d01t07.flac
6:43.64 71239772 B --- -- ---xx flac 0.5864 trey2012-10-27d01t08.flac
9:57.15 105346124 B --- -- ---xx flac 0.5938 trey2012-10-27d02t01.flac
7:04.61 74937116 B --- -- ---xx flac 0.4596 trey2012-10-27d02t02.flac
9:30.24 100604492 B --- -- ---xx flac 0.6218 trey2012-10-27d02t03.flac
6:46.30 71689004 B --- -- ---xx flac 0.5405 trey2012-10-27d02t04.flac
11:09.59 118150412 B --- -- ---xx flac 0.5686 trey2012-10-27d02t05.flac
6:12.70 65785484 B --- -- ---xx flac 0.5795 trey2012-10-27d02t06.flac
5:53.26 62330396 B --- -- ---xx flac 0.5691 trey2012-10-27d03t01.flac
3:32.22 37448588 B --- -- ---xx flac 0.5461 trey2012-10-27d03t02.flac
6:05.30 64456604 B --- -- ---xx flac 0.5774 trey2012-10-27d03t03.flac
9:36.33 101684060 B --- -- ---xx flac 0.5232 trey2012-10-27d03t04.flac
6:10.18 65310380 B --- -- ---xx flac 0.5194 trey2012-10-27d03t05.flac
10:19.59 109330412 B --- -- ---xx flac 0.5899 trey2012-10-27d03t06.flac
4:25.70 46910684 B --- -- ---xx flac 0.5597 trey2012-10-27d03t07.flac
7:32.10 79756364 B --- -- ---xx flac 0.6334 trey2012-10-27d03t08.flac
9:29.01 100373996 B --- -- ---xx flac 0.5364 trey2012-10-27d03t09.flac
170:50.52 1808223316 B 0.5681 (23 files)

Checksumstrey2012-10-27d01t01.flac:88487e453bd3608320f9aae62a8150b4
trey2012-10-27d01t02.flac:1b373d1a683a0adb7e9e63d7d49e5889
trey2012-10-27d01t03.flac:65efcd314986a48742f1fa67e99b03c5
trey2012-10-27d01t04.flac:a013eac7b3caa5958f8e6e5dc44a9f29
trey2012-10-27d01t05.flac:56f0f1b5909e03cd800db8cd25378e32
trey2012-10-27d01t06.flac:85050175a57162fc5b054010530226a2
trey2012-10-27d01t07.flac:d1726870c07e9da0c31bcc5a634d829f
trey2012-10-27d01t08.flac:7e2989e201ac95d0d71f9f1b0d01d962
trey2012-10-27d02t01.flac:a36af026b19b93734d64c334fcf41e9f
trey2012-10-27d02t02.flac:f37fcb92aabcb74f0cbbf1ae60c75d2d
trey2012-10-27d02t03.flac:8b6fa3c6ddf5b8d65c6b98b6099930e0
trey2012-10-27d02t04.flac:3e65600fe4d5a394a25088a35f33dc25
trey2012-10-27d02t05.flac:c466e305e308b3e27400cc3697a7db83
trey2012-10-27d02t06.flac:362f3fdc0b3fe38eaa3e3e01b9173bef
trey2012-10-27d03t01.flac:e938cc0346c4636829f014bfc42672dc
trey2012-10-27d03t02.flac:33a7297d918b90a8759dbe793fc6b098
trey2012-10-27d03t03.flac:3cb1ceab6d1cae25c5d3771c60cf981e
trey2012-10-27d03t04.flac:4a7aa3841586a23464e13651e84593c0
trey2012-10-27d03t05.flac:613d15a5ad397c6b7751360bc13925ee
trey2012-10-27d03t06.flac:5108fad099c75500b739014297658856
trey2012-10-27d03t07.flac:8181cf8414ab04998624fcf42057b087
trey2012-10-27d03t08.flac:3280dae053373f5e2043d975685194b7
trey2012-10-27d03t09.flac:ee57f64b1d0c5de548b85bdc6844436a
TypeTrey Anastasio
Last seederLast activity 9:27:20 ago
Size979.69 MB (1027280482 Bytes)
Added2012-10-28 10:15:31
Views0
Hits763
Snatched480 times
Upped byzmanatl
Num files
[See full list]
24 files
Peers
[See full list]
1 seeder, 0 leechers = 1 peer total

Add a comment

BostonDPA4023 2012-10-28 10:52:14
Did you stay out of the penalty box??
slacka 2012-10-28 10:58:05
Thanks for the quick "up". Great show except for their "zero tolerance" policy on smoking the herb.
bvaz 2012-10-28 11:15:08
thanks zman
parkerjh 2012-10-28 12:09:29
Sounds great! Thanks for the quick up.
andyjah 2012-10-28 12:12:21
Thanks Zman. Fun show. Wished I'd not run into battery issues.
digs5446 2012-10-28 12:19:18
Sick, thanks! Love your pulls and psyched to grab this since i was there last night! great time.
zmanatl 2012-10-28 12:57:51
Sorry I did not get this done last night but after working all day, then getting up for work today.... I got to the venue after hunting for a parking spot almost a mile away around 7:10. Saw Andy and Freshie in center of Mezzanine. Unfortunately, Andy had no room for me to clamp. I went over to the aisle in the right center section and set up on the rail there. No problem and the neighbors were very cool. No penalty box John! I had 3rd row and when the guy showed up for the seat I had grabbed, we traded. Perfect. Only one problem last night. During the 2nd song, the guy behind me stumbled and crashed into me. i grabbed the rail and he grabbed me and luckily, I did not do a belly drive. Not sure if he was tanked, but I had to sit for a minute until my heart stopped beating like a rabbit! Scary minute or 2.

Trey played 2 sets. Somewhat predictable with all te new stuff mixed in with some standards. Trey as usual was pumped and was very enthusiastic. Sweet Dreams Melinda and Cayman Review had everyone comfortable. Some of the new tunes were a bit slow for me. Push On was a very solid set closer. Corona and Jibboo rocked the house to start the 2nd set. I am quite happy as the recording sounds very good IMO. Great to see Andy and Freshie. I felt bad for Andy as he had battery issues. No fights tonight CK! Missed Brian V. Not sure of the No tolerence, but the venue smelled stinky good all night!

Here is a taste of what we got to see:

Gotta Jibboo:
http://youtu.be/ZlYcMyDeIaQ

First Tube:
http://youtu.be/LU56HvJFefw

Push On Til Day:
http://youtu.be/evWpoy6AVBs

Late night dinner was Chicken Satay and Pork Fried Rice.

Enjoy Show #150 of 2012!
chocobot 2012-10-28 13:05:15
thanks z
Pisces 2012-10-28 13:17:59
Thanks!
jasonsobel 2012-10-28 13:19:59
I just added this to the etree database:
http://db.etree.org/shn/122574

thanks!
thecat18 2012-10-28 13:49:20
Thanks for sharing.
LAStubbe 2012-10-28 14:27:48
Z, just Schoeps, no DPA's on this night?
noahz 2012-10-28 14:28:02
Thank you so much! Fun show, always great to see Trey in town.
colinw 2012-10-28 18:55:41
thank you. Had a great time at the Orpheum last night
Tranastasio1 2012-10-28 22:20:41
Thanx for the "KIND" seed!
Myco69 2012-10-28 22:53:07
Thank you Z, I hope to be taping a show with you really soon!

Myco
bigdaddybflo 2012-10-29 10:50:40
GO Z GO ! Stay outta trouble you animal !
chocobot 2012-10-31 10:13:40
very nice recording. thank you
axomxa 2012-10-31 20:53:13
Thanks zman.

I also had a crash incident with a patron knocking the rig leaving the row I was in the night before at Mule. I caught the stand so it did not go down but the gig bag hit the floor and the v3, 680 and D50 backup all had power disconnect. Trying to work out the details and edit now but lost about 2-3 minutes near the end of set 1. . . the hazards of tight spots like the Orpheum!

Add a comment


http://etree.org : http://db.etree.org : http://forums.etree.org : http://wiki.etree.org : Legal : RSS Feed

Contents designed & maintained by the etree.org volunteers
1998-2014, etree.org, except where noted. All Rights Reserved.
Read our terms of service and privacy guidelines