bt.etree.org
etree.org Community Bittorrent Tracker
ArtistTea Leaf Green
ShowTea Leaf Green - 2012-10-31 - Bama Theatre - Tuscaloosa, AL *Matrix*
Report this as
non-Trade-Friendly
Email us
Torrenttlg2012-10-31.matrix.flac16.torrent (click to download)
Downloads astlg2012-10-31.matrix.flac16
Info hashf09a5ff2151ecaefdb97e39e4cc9b16bfdf47866
DescriptionTeal Leaf Green
2012-10-31
Bama Theatre
Tuscaloosa, AL


***16bit Source***


Source: SBD + Schoeps MK4V > KC5 > CMC6 > Sound Devices 744T (24bit/48kHz)
Location: FOB / LOC / 7ft / ORTF
Transfer: 744T > HDD > Wavelab 6.1 (DSP/Crystal Re-Sampler/MBit+ Dither/Fades) > CDWave > TLH > FLAC (8)
Taped, Transferred & Seeded by Martin Medley


One Set:

01. Gut Feeling >
02. Arise
03. All Washed Up
04. Nothing Changes (Tease) > Reservoir
05. Nothing Changes >
06. Innocence
07. Jackson Hole >
08. Honey Bee
09. If It Wasn't For The Money
10. Starman >
11. Devil's Pay


[Co-billed with Moon Taxi]


['Gut Feeling' instrumental (Devo) first time played; 'Starman' (David Bowie)]



shntool info:

length expanded size cdr WAVE problems fmt ratio filename
3:27.05 36526604 B --- -- ---xx flac 0.5724 tlg2012-10-31t01.flac
7:00.65 74240924 B --- -- ---xx flac 0.5315 tlg2012-10-31t02.flac
8:16.15 87529724 B --- -- ---xx flac 0.5677 tlg2012-10-31t03.flac
6:37.15 70066124 B --- -- ---xx flac 0.5749 tlg2012-10-31t04.flac
6:11.30 65515004 B --- -- ---xx flac 0.4913 tlg2012-10-31t05.flac
6:46.32 71693708 B --- -- ---xx flac 0.5831 tlg2012-10-31t06.flac
6:19.31 66928556 B --- -- ---xx flac 0.5556 tlg2012-10-31t07.flac
4:33.70 48321884 B --- -- ---xx flac 0.5819 tlg2012-10-31t08.flac
5:28.07 57875708 B --- -- ---xx flac 0.5793 tlg2012-10-31t09.flac
4:29.01 47453996 B --- -- ---xx flac 0.5943 tlg2012-10-31t10.flac
7:44.25 81908444 B --- -- ---xx flac 0.5894 tlg2012-10-31t11.flac
66:53.71 708060676 B 0.5644 (11 files)


FLAC Fingerprint:
Checksums
tlg2012-10-31t01.flac:d2444f66be89d4ee82fbbe8b88bf5dd2
tlg2012-10-31t02.flac:cb3181855bc8ab15d774eb7a4d46e1e1
tlg2012-10-31t03.flac:9a2edb2182c33de6c853d741c2beaacb
tlg2012-10-31t04.flac:78995dc86d8aff485eb8194fa83f1137
tlg2012-10-31t05.flac:9af16a4f48f0e70f1b187336e4eca960
tlg2012-10-31t06.flac:36100a801a05ca7d631da7d93d1b8725
tlg2012-10-31t07.flac:186aa5915e8f63626a7ed155f222e223
tlg2012-10-31t08.flac:d669abda1dcfee1892429b77578d3853
tlg2012-10-31t09.flac:70bb73e601b55250384cc6542c2aaa6d
tlg2012-10-31t10.flac:0459c89eb2dd99e35693b7451dba2b24
tlg2012-10-31t11.flac:6eece8cc526f1910b0b09d51c91cefac
TypeTea Leaf Green
Last seederLast activity 11 days, 23:46:41 ago
Size381.13 MB (399639330 Bytes)
Added2012-11-07 22:20:41
Views0
Hits257
Snatched124 times
Upped bymmedley
Num files12 files
File List
[Hide list]
filenamesizemd5
tlg2012-10-31.txt2.4 kBN/A
tlg2012-10-31t01.flac19.94 MBN/A
tlg2012-10-31t02.flac37.63 MBN/A
tlg2012-10-31t03.flac47.39 MBN/A
tlg2012-10-31t04.flac38.42 MBN/A
tlg2012-10-31t05.flac30.69 MBN/A
tlg2012-10-31t06.flac39.87 MBN/A
tlg2012-10-31t07.flac35.46 MBN/A
tlg2012-10-31t08.flac26.82 MBN/A
tlg2012-10-31t09.flac31.97 MBN/A
tlg2012-10-31t10.flac26.89 MBN/A
tlg2012-10-31t11.flac46.04 MBN/A
Peers
[See full list]
1 seeder, 0 leechers = 1 peer total

Add a comment

Dgold 2012-11-12 23:37:50
Thanks very much for the TLG

Add a comment


http://etree.org : http://db.etree.org : http://forums.etree.org : http://wiki.etree.org : Legal : RSS Feed

Contents designed & maintained by the etree.org volunteers
1998-2014, etree.org, except where noted. All Rights Reserved.
Read our terms of service and privacy guidelines