bt.etree.org
etree.org Community Bittorrent Tracker
Artistmoe.
Showmoe. Lupo's Heartbreak Hotel Providence, Rhode Island 11/8/2012 (Schoeps CCM4V'S FOB)
Report this as
non-Trade-Friendly
Email us
Torrentmoe2012-11-08.flac16.torrent (click to download)
Downloads asmoe2012-11-08.flac16
Info hashd8c6ac600af30829af590545fb30945e76db2caa
db linkhttp://db.etree.org/shn/122788 | Show | Source
Descriptionmoe.
Lupo's Heartbreak Hotel
Providence, Rhode Island
11/8/2012

Source: Schoeps CCM4V'S(din)>Lunatec V2>Benchmark AD2K>
Sound Devices 722 (24/48)
FOB/DLFC/KFC/ZFC/AARP 30' From Stage, 7 1/2' High
DSP: Sound Devices 722>Sound Forge 9.0>CD Wave>flac(16)
Recorded By: Z-Man
Seeded By: Z-Man

Disc I 1st Set

01 Bring You Down >
02 Californ-IA >
03 Runaway Overlude
04 Cathedral

Disc II 1st Set Con't

01 Yodelittle >
02 McBain >
03 Yodelittle
04 Announcements
2nd Set:
05 Tuning
06 Cissy Strut
07 Wind It Up

Disc III 2nd Set Con't

01 Puebla >
02 Water >
03 Brent Black >
04 *#Drum Solo
05 That Coffee Tune >
06 Brent Black
Encore:
07 @Alnouncements
08 ^Johnny Line Up
09 She Sends Me

* With Chuck On Percussion
# With Al On Drum Kit At The End
@ With Fire And Freddy's Dead Jam
^ With Andy Freed On Shaker

Flac Fingerprint

moe2012-11-08d01t01.flac:b2456358d7b579f5a86567b0b399eab8
moe2012-11-08d01t02.flac:2fe704bba346ad9b2f615a5f3bd5173b
moe2012-11-08d01t03.flac:f117aa1584492abeca9ff771960dc7b1
moe2012-11-08d01t04.flac:55c258a16a51e8e0b69b4c30915b1ae7
moe2012-11-08d02t01.flac:0880034c3b97b1627e414e95c0516b6b
moe2012-11-08d02t02.flac:4f2cf62f8a7e0695a144d6f04a1330cb
moe2012-11-08d02t03.flac:7022cc6f6fdcee3ed039b29ab37ab293
moe2012-11-08d02t04.flac:7ca5c000b9c53f925fafec9e85b4631a
moe2012-11-08d02t05.flac:761674aa51af5f8f143fb8c78443f982
moe2012-11-08d02t06.flac:4b53df5f1fa1db0d610e67c3c12848ef
moe2012-11-08d02t07.flac:d164e0c3d0a7e6bdb8d5e187be9453a1
moe2012-11-08d03t01.flac:cc521c9be61d840ae3fd293de4e799d8
moe2012-11-08d03t02.flac:32a7028951bd4b536f8a614b3162f8f0
moe2012-11-08d03t03.flac:e0a6b279663879de62d60633fc005f03
moe2012-11-08d03t04.flac:9db4742a020083b11985503232210452
moe2012-11-08d03t05.flac:3b0d240f20e1293b3c12f3b340c1e99d
moe2012-11-08d03t06.flac:d3fff5d5658e43cf752fb56c21561fae
moe2012-11-08d03t07.flac:68a942a5074af22c4d1117aefe9a515d
moe2012-11-08d03t08.flac:6755f5697ebab3fa4be56e13920d8365
moe2012-11-08d03t09.flac:5b2224bd68a788a8587f457f0fe3097e

Shntool

length expanded size cdr WAVE problems fmt ratio filename
13:42.16 145038476 B --- -- ---xx flac 0.4941 moe2012-11-08d01t01.flac
13:14.72 140230988 B --- -- ---xx flac 0.4669 moe2012-11-08d01t02.flac
6:57.10 73582364 B --- -- ---xx flac 0.4847 moe2012-11-08d01t03.flac
5:35.53 59218700 B --- -- ---xx flac 0.4996 moe2012-11-08d01t04.flac
11:36.24 122830892 B --- -- ---xx flac 0.5000 moe2012-11-08d02t01.flac
25:51.01 273598796 B --- -- ---xx flac 0.5344 moe2012-11-08d02t02.flac
8:39.39 91643372 B --- -- ---xx flac 0.5003 moe2012-11-08d02t03.flac
1:55.69 20448332 B --- -- ---xx flac 0.4066 moe2012-11-08d02t04.flac
0:29.57 5249708 B --- -- ---xx flac 0.3689 moe2012-11-08d02t05.flac
12:54.21 136583036 B --- -- ---xx flac 0.5479 moe2012-11-08d02t06.flac
7:55.09 83811212 B --- -- ---xx flac 0.5495 moe2012-11-08d02t07.flac
11:02.64 116927372 B --- -- ---xx flac 0.5250 moe2012-11-08d03t01.flac
14:40.22 155283788 B --- -- ---xx flac 0.5453 moe2012-11-08d03t02.flac
6:17.26 66563996 B --- -- ---xx flac 0.5465 moe2012-11-08d03t03.flac
8:54.50 94315244 B --- -- ---xx flac 0.4975 moe2012-11-08d03t04.flac
6:17.44 66606332 B --- -- ---xx flac 0.5491 moe2012-11-08d03t05.flac
1:12.49 12816092 B --- -- ---xx flac 0.5698 moe2012-11-08d03t06.flac
3:47.31 40115756 B --- -- ---xx flac 0.4288 moe2012-11-08d03t07.flac
6:37.62 70176668 B --- -- ---xx flac 0.5142 moe2012-11-08d03t08.flac
5:30.42 58310828 B --- -- ---xx flac 0.5362 moe2012-11-08d03t09.flac
173:13.11 1833351952 B 0.5153 (20 files)



Checksumsmoe2012-11-08d01t01.flac:b2456358d7b579f5a86567b0b399eab8<br />
moe2012-11-08d01t02.flac:2fe704bba346ad9b2f615a5f3bd5173b<br />
moe2012-11-08d01t03.flac:f117aa1584492abeca9ff771960dc7b1<br />
moe2012-11-08d01t04.flac:55c258a16a51e8e0b69b4c30915b1ae7<br />
moe2012-11-08d02t01.flac:0880034c3b97b1627e414e95c0516b6b<br />
moe2012-11-08d02t02.flac:4f2cf62f8a7e0695a144d6f04a1330cb<br />
moe2012-11-08d02t03.flac:7022cc6f6fdcee3ed039b29ab37ab293<br />
moe2012-11-08d02t04.flac:7ca5c000b9c53f925fafec9e85b4631a<br />
moe2012-11-08d02t05.flac:761674aa51af5f8f143fb8c78443f982<br />
moe2012-11-08d02t06.flac:4b53df5f1fa1db0d610e67c3c12848ef<br />
moe2012-11-08d02t07.flac:d164e0c3d0a7e6bdb8d5e187be9453a1<br />
moe2012-11-08d03t01.flac:cc521c9be61d840ae3fd293de4e799d8<br />
moe2012-11-08d03t02.flac:32a7028951bd4b536f8a614b3162f8f0<br />
moe2012-11-08d03t03.flac:e0a6b279663879de62d60633fc005f03<br />
moe2012-11-08d03t04.flac:9db4742a020083b11985503232210452<br />
moe2012-11-08d03t05.flac:3b0d240f20e1293b3c12f3b340c1e99d<br />
moe2012-11-08d03t06.flac:d3fff5d5658e43cf752fb56c21561fae<br />
moe2012-11-08d03t07.flac:68a942a5074af22c4d1117aefe9a515d<br />
moe2012-11-08d03t08.flac:6755f5697ebab3fa4be56e13920d8365<br />
moe2012-11-08d03t09.flac:5b2224bd68a788a8587f457f0fe3097e<br />
Typemoe.
Last seederLast activity 21:09 ago
Size901.04 MB (944813345 Bytes)
Added2012-11-09 09:35:07
Views0
Hits393
Snatched167 times
Upped byzmanatl
Num files
[See full list]
21 files
Peers
[See full list]
1 seeder, 0 leechers = 1 peer total

Add a comment

LAStubbe 2012-11-09 09:51:35
Way to go. You got a nice show. Playing sounded sharp and creative. BYD > CIA is my all time favorite moe segue. They rocked it a bunch in 96 and have mostly left it alone since. Ltp I think was 10/27/05 as a pairing. It was one of my two requests to chuck on twitter the night before when he was asking for song suggestions for Providence.

Ironically Providence is the site of my all time fav show 5/16/96 with the best BYD > CIA.
rockinmule 2012-11-09 09:57:21
wow....this was quick....great show last night. Thanks much
bvaz 2012-11-09 09:59:58
Nice work on the quick transfer and nice work on the requests Lenny.
This was a great show and fun night.
zmanatl 2012-11-09 10:11:39
If it wasn't for sleep and work, I would have done this last night. I was Brian's co-pilot to Providence. Great to spend "quality" time with you! We did get a smoker last night. I believe that was my first Cissy Strut and they did it justice. Lenny, I listed the Fire and Freddy's Dead cuz I figured you would appreciate it. I took some video and will share this weekend. I really like Lupo's! Was it me, or were there a lot of really cute girls, totally shit-faced?

Brian, Dopapod may be #158. What time are you heading out, 7;30-8:00? Let's talk later.
mec111272 2012-11-09 12:28:20
Great show, had a good time. Ended up with tech issues at the end of the second set. BOOOOO

I got some good balcony video of the second set drums switcharoo!
bvaz 2012-11-09 12:47:13
I'd love to see that video at some point Mike. It was funny how it only took Rob about 25 seconds to realize going to the xylophone was probably a bad idea.
sean612 2012-11-09 15:42:42
Z-Power!!!!!!!
bigdaddybflo 2012-11-09 16:11:25
GO Z GO !! Z-maninal rules ! Thanks for the love.
tommie01 2012-11-09 16:13:33
Thanks Z-Man. Yet another band that I have given up on way too early, but I am coming back around. Sucks for you guys though, because every time I decide that I really do like a band, they go on hiatus... Just sayin'.
zmanatl 2012-11-09 18:55:41
My very amateur videos. I had to be lo pro as I was right in front. I could not really check the camera without being obvious. As a result, Al is cut off in a bunch of footage. Sorry.

Cissy Strut:
http://youtu.be/tcoyvMgeWF8

Runaway Overlude:
http://youtu.be/IQbhQaSKqpk

Yodelittle >
McBain >
Yodelittle::
http://youtu.be/zrjnqMoEf68
Myco69 2012-11-09 21:47:53
Thanks Z for the show, and the tag!
I rocked it Couch-Tour style. Gonna blast this tomorrow!
mattnix 2012-11-11 09:16:22
THANKS for all the effort! Can't wait to hear this one.
philandjenny 2012-11-15 03:29:11
great show, great recording, many thanks
Cheers from Oz
Phil

Add a comment


http://etree.org : http://db.etree.org : http://forums.etree.org : http://wiki.etree.org : Legal : RSS Feed

Contents designed & maintained by the etree.org volunteers
1998-2014, etree.org, except where noted. All Rights Reserved.
Read our terms of service and privacy guidelines