bt.etree.org
etree.org Community Bittorrent Tracker
ArtistGrateful Dead
Showgd72-11-19.sbd.gans.miller.122783.flac16
Report this as
non-Trade-Friendly
Email us
Torrentgd72-11-19.sbd.gans.miller.122783.flac16.torrent (click to download)
Downloads asgd72-11-19.sbd.gans.miller.122783.flac16
Info hashcb871feea8e63437051f7442e2b9e3c2854f16c9
db linkhttp://db.etree.org/shn/122783 | Show | Source
DescriptionGrateful Dead - November 19, 1972
Hofheinz Pavilion - Houston, TX

Recording Info:
SBD -> Master Reel -> Reel (7.5ips 2 track/Dolby B)

Transfer Info:
Reel (Dolby B Decoded) -> WAV (24bit/96k)

Mastering Info:
WAV (24bit/96k) -> Adobe Audition v3.0 -> Samplitude Professional v11.2.1 -> FLAC/16
(3 Discs Audio / 1 DVD FLAC)

Reels supplied and Transferred By David Gans
Mastered By Charlie Miller
charliemiller87@earthlink.net
November 8, 2012

Notes:
-- All disc changes are seamless
-- Mix problems in Bertha
-- Cut at 0:27 in I Know You Rider
-- Cut at 0:13 in Playing In The Band
-- Cut at 2:46 in Weather Report Suite Prelude
-- This is far from perfect but is still an upgrade to other sources
-- Thanks to Joe B. Jones for his help with the pitch correction

Set 1:
d1t01 - Bertha
d1t02 - Me And My Uncle
d1t03 - Sugaree
d1t04 - Beat It On Down The Line
d1t05 - Bird Song
d1t06 - Black Throated Wind
d1t07 - Don't Ease Me In
d1t08 - Mexicali Blues
d1t09 - Box Of Rain
d1t10 - Stars And Stripes Forever tuning
d1t11 - Tomorrow Is Forever
d1t12 - Big River
d1t13 - China Cat Sunflower ->
d1t14 - I Know You Rider
d1t15 - Nickeldeon tuning
d2t01 - Playing In The Band
d2t02 - Casey Jones

Set 2:
d2t03 - Tuning
d2t04 - Promised Land
d2t05 - Ramble On Rose
d2t06 - El Paso
d2t07 - Stella Blue
d2t08 - Jack Straw
d2t09 - Dixie tuning
d3t01 - Dark Star ->
d3t02 - Weather Report Suite Prelude ->
d3t03 - Mississippi Half-Step Uptown Toodeloo
d3t04 - Around And Around
d3t05 - Big Railroad Blues
d3t06 - Sugar Magnolia ->
d3t07 - Goin' Down The Road Feeling Bad


SHNTOOL OUTPUT:
length expanded size cdr WAVE problems fmt ratio filename
5:18.66 56250476 B --- -- ---xx flac 0.5365 gd72-11-19d1t01.flac
3:04.38 32547020 B --- -- ---xx flac 0.5528 gd72-11-19d1t02.flac
7:02.00 74440844 B --- -- ---xx flac 0.4981 gd72-11-19d1t03.flac
3:19.67 35261228 B --- -- ---xx flac 0.4992 gd72-11-19d1t04.flac
11:25.47 120944588 B --- -- ---xx flac 0.4922 gd72-11-19d1t05.flac
6:43.27 71152748 B --- -- ---xx flac 0.4933 gd72-11-19d1t06.flac
3:37.48 38391740 B --- -- ---xx flac 0.4917 gd72-11-19d1t07.flac
4:25.67 46903628 B --- -- ---xx flac 0.4954 gd72-11-19d1t08.flac
5:33.52 58863548 B --- -- ---xx flac 0.4855 gd72-11-19d1t09.flac
0:56.10 9901964 B --- -- ---xx flac 0.4618 gd72-11-19d1t10.flac
5:31.37 58475468 B --- -- ---xx flac 0.4809 gd72-11-19d1t11.flac
4:38.10 49062764 B --- -- ---xx flac 0.5006 gd72-11-19d1t12.flac
7:06.31 75219356 B --- -- ---xx flac 0.5032 gd72-11-19d1t13.flac
5:03.04 53458652 B --- -- ---xx flac 0.5079 gd72-11-19d1t14.flac
0:27.74 4936892 B --- -- ---xx flac 0.4267 gd72-11-19d1t15.flac
21:17.11 225288716 B --- -- ---xx flac 0.4818 gd72-11-19d2t01.flac
5:59.42 63426428 B --- -- ---xx flac 0.5013 gd72-11-19d2t02.flac
2:16.58 24126860 B --- -- ---xx flac 0.4007 gd72-11-19d2t03.flac
3:17.27 34814348 B --- -- ---xx flac 0.5120 gd72-11-19d2t04.flac
6:53.53 72977900 B --- -- ---xx flac 0.4745 gd72-11-19d2t05.flac
4:24.37 46656668 B --- -- ---xx flac 0.4806 gd72-11-19d2t06.flac
8:15.14 87350972 B --- -- ---xx flac 0.4407 gd72-11-19d2t07.flac
6:05.23 64440140 B --- -- ---xx flac 0.4742 gd72-11-19d2t08.flac
1:07.74 11992892 B --- -- ---xx flac 0.4450 gd72-11-19d2t09.flac
25:40.17 271696028 B --- -- ---xx flac 0.4634 gd72-11-19d3t01.flac
6:00.03 63511100 B --- -- ---xx flac 0.5099 gd72-11-19d3t02.flac
8:31.59 90279212 B --- -- ---xx flac 0.5067 gd72-11-19d3t03.flac
5:03.40 53543324 B --- -- ---xx flac 0.5189 gd72-11-19d3t04.flac
4:54.28 51927500 B --- -- ---xx flac 0.4990 gd72-11-19d3t05.flac
8:35.33 90923660 B --- -- ---xx flac 0.5262 gd72-11-19d3t06.flac
7:55.23 83844140 B --- -- ---xx flac 0.4838 gd72-11-19d3t07.flac
200:32.70 2122610804 B 0.4890 (31 files)
Checksumsbb67c2012884f176ca8d734fc8834c60 *gd72-11-19d1t01.flac
dd3b05931e870180c2e5018d9e5a7931 *gd72-11-19d1t02.flac
9738172f5abf086d9591f939bc34c053 *gd72-11-19d1t03.flac
eeea4ad59c9e507940b50c3df9fa34af *gd72-11-19d1t04.flac
226f976ed0c2c7052343506f489ffd32 *gd72-11-19d1t05.flac
1a0e5b22476569d5e66177c80e999a2a *gd72-11-19d1t06.flac
530632aacacab302ade6c2862a26079b *gd72-11-19d1t07.flac
2ba72e3370fc270f0fa7959f23d6dfd9 *gd72-11-19d1t08.flac
0fea20a76235019189569065baf5f9f4 *gd72-11-19d1t09.flac
eb22420907dde33a88b8261659868b5c *gd72-11-19d1t10.flac
555c54a1b9a1a3431b9bdb2cc366a716 *gd72-11-19d1t11.flac
a2c6e6ba158774c58d37ff31f9583e04 *gd72-11-19d1t12.flac
0aee7fdc463433af09103c3b37652771 *gd72-11-19d1t13.flac
0a415779b3e03cbf8b3b0d4f6b8f699a *gd72-11-19d1t14.flac
dc70265fb16425e51b27d0b0dbf272b5 *gd72-11-19d1t15.flac
b595996e7a40ca16eed2e063b9ea7178 *gd72-11-19d2t01.flac
9c40b40f5d88ffbbfd58042a0387dc49 *gd72-11-19d2t02.flac
171d8c9e245f6703cba143c1ed24b792 *gd72-11-19d2t03.flac
ced5ae7a69311e7b6c86167c255c4a54 *gd72-11-19d2t04.flac
42187948250991e0fc91e374958866fb *gd72-11-19d2t05.flac
cc4ca2ddb0ebfec5c970a068d2352c87 *gd72-11-19d2t06.flac
5533c9ff6b175007f96b2b430a621050 *gd72-11-19d2t07.flac
fb04d5baa0b1c7aacdcfecebc0c13cb0 *gd72-11-19d2t08.flac
e685dc042102c393ff9e08aa8b741a94 *gd72-11-19d2t09.flac
d1786f54661810e5c35c9402e9458467 *gd72-11-19d3t01.flac
caaee6e804399e218fd069979f0aceb3 *gd72-11-19d3t02.flac
0b7426024dadc8184bf0827eeab9cd99 *gd72-11-19d3t03.flac
e81dac78489a7c17f8992809133806a3 *gd72-11-19d3t04.flac
4ad3b79d657fce0b32b613145ce6f3ef *gd72-11-19d3t05.flac
ba3ac8dbaa4e4d58a1c9aa26ef865a5d *gd72-11-19d3t06.flac
5d5434e6bb4df3af729e4f484150a07f *gd72-11-19d3t07.flac
TypeGrateful Dead
Last seederLast activity 8:25 ago
Size989.85 MB (1037935595 Bytes)
Added2012-11-09 09:53:04
Views0
Hits1554
Snatched1046 times
Upped byWHARFRAT73
Num files
[See full list]
34 files
Peers
[See full list]
5 seeders, 0 leechers = 5 peers total

Add a comment

<< Prev      Next >>
1 - 20 | 21 - 24

schoonbr 2012-11-10 23:52:45
Thanks very much to all involved in making and distributing this outstanding music!

From Dick Latvala's "best of 72" notes regarding this night:

"The show on the following night
(11/19) is one of the most exciting shows over-all, from this southern
tour. There is a "jam" segment before "Miss.1/2 step..", that contains
several distinct, and very unique themes, including the "philo stomp",
"weather report" theme, a brain-fry, and a very lengthy bass solo! "
wishy9 2012-11-14 14:51:59
The tracking is weird with the pre song tuning jams ending a cd instead of starting the next cd and leading into the song there tuning for. I don't get it.
bonghitwillie 2012-11-23 20:38:47
the bass solo during dark star will blow your woofers out. be careful.
mgadvise 2012-12-02 01:00:48
wishy9:

You're right about the sloppy tracking. Still, a significant upgrade of a great, great show. My previous version had little instances of dat screech.

I re-edited it to correct the tracking issues.

Of particular note, I just wanted to point out Phil's liberal quoting of the bass riff from John Coltrane's Ole during the Dark Star.

An absolute must have, especially for Phil Phreaks!

Enjoy.

1 - 20 | 21 - 24
<< Prev      Next >>

Add a comment


http://etree.org : http://db.etree.org : http://forums.etree.org : http://wiki.etree.org : Legal : RSS Feed

Contents designed & maintained by the etree.org volunteers
1998-2014, etree.org, except where noted. All Rights Reserved.
Read our terms of service and privacy guidelines