bt.etree.org
etree.org Community Bittorrent Tracker
ArtistGrateful Dead
Showgd72-11-19.sbd.gans.miller.122784.flac24
Report this as
non-Trade-Friendly
Email us
Torrentgd72-11-19.sbd.gans.miller.122784.flac24.torrent (click to download)
Downloads asgd72-11-19.sbd.gans.miller.122784.flac24
Info hash6e9da4bbe5b886c5bf560bc3fd02849d39c2534d
db linkhttp://db.etree.org/shn/122784 | Show | Source
DescriptionGrateful Dead - November 19, 1972
Hofheinz Pavilion - Houston, TX

Recording Info:
SBD -> Master Reel -> Reel (7.5ips 2 track/Dolby B)

Transfer Info:
Reel (Dolby B Decoded) -> WAV (24bit/96k)

Mastering Info:
WAV (24bit/96k) -> Adobe Audition v3.0 -> Samplitude Professional v11.2.1 -> FLAC/24
(1 DVD FLAC)

Reels supplied and Transferred By David Gans
Mastered By Charlie Miller
charliemiller87@earthlink.net
November 8, 2012

Notes:
-- Mix problems in Bertha
-- Cut at 0:27 in I Know You Rider
-- Cut at 0:13 in Playing In The Band
-- Cut at 2:46 in Weather Report Suite Prelude
-- This is far from perfect but is still an upgrade to other sources
-- Thanks to Joe B. Jones for his help with the pitch correction

Set 1:
s1t01 - Bertha
s1t02 - Me And My Uncle
s1t03 - Sugaree
s1t04 - Beat It On Down The Line
s1t05 - Bird Song
s1t06 - Black Throated Wind
s1t07 - Don't Ease Me In
s1t08 - Mexicali Blues
s1t09 - Box Of Rain
s1t10 - Stars And Stripes Forever tuning
s1t11 - Tomorrow Is Forever
s1t12 - Big River
s1t13 - China Cat Sunflower ->
s1t14 - I Know You Rider
s1t15 - Nickeldeon tuning
s1t16 - Playing In The Band
s1t17 - Casey Jones

Set 2:
s2t01 - Tuning
s2t02 - Promised Land
s2t03 - Ramble On Rose
s2t04 - El Paso
s2t05 - Stella Blue
s2t06 - Jack Straw
s2t07 - Dixie tuning
s2t08 - Dark Star ->
s2t09 - Weather Report Suite Prelude ->
s2t10 - Mississippi Half-Step Uptown Toodeloo
s2t11 - Around And Around
s2t12 - Big Railroad Blues
s2t13 - Sugar Magnolia ->
s2t14 - Goin' Down The Road Feeling Bad


SHNTOOL OUTPUT:
length expanded size cdr WAVE problems fmt ratio filename
5:18.882 183676082 B cxx -- ---xx flac 0.5676 gd72-11-19s1t01.flac
3:04.507 106275818 B cxx -- ---xx flac 0.5774 gd72-11-19s1t02.flac
7:02.002 243072998 B cxx -- ---xx flac 0.5538 gd72-11-19s1t03.flac
3:19.901 115143008 B cxx -- ---xx flac 0.5646 gd72-11-19s1t04.flac
11:25.623 394919126 B cxx -- ---xx flac 0.5576 gd72-11-19s1t05.flac
6:43.365 232338104 B cxx -- ---xx flac 0.5569 gd72-11-19s1t06.flac
3:37.630 125355032 B cxx -- ---xx flac 0.5533 gd72-11-19s1t07.flac
4:25.895 153155708 B cxx -- ---xx flac 0.5611 gd72-11-19s1t08.flac
5:33.701 192211892 B cxx -- ---xx flac 0.5537 gd72-11-19s1t09.flac
0:56.959 32808392 B cxx -- ---xx flac 0.5519 gd72-11-19s1t10.flac
5:31.669 191041304 B cxx -- ---xx flac 0.5491 gd72-11-19s1t11.flac
4:37.880 160058984 B cxx -- ---xx flac 0.5555 gd72-11-19s1t12.flac
7:06.538 245686160 B cxx -- ---xx flac 0.5533 gd72-11-19s1t13.flac
5:04.368 175315904 B cxx -- ---xx flac 0.5590 gd72-11-19s1t14.flac
0:31.048 17883446 B cxx -- ---xx flac 0.5190 gd72-11-19s1t15.flac
21:15.929 734935196 B cxx -- ---xx flac 0.5463 gd72-11-19s1t16.flac
5:59.807 207248756 B cxx -- ---xx flac 0.5611 gd72-11-19s1t17.flac
2:16.698 78738050 B cxx -- ---xx flac 0.5273 gd72-11-19s2t01.flac
3:17.362 113680382 B cxx -- ---xx flac 0.5708 gd72-11-19s2t02.flac
6:53.701 238291778 B cxx -- ---xx flac 0.5470 gd72-11-19s2t03.flac
4:24.502 152353142 B cxx -- ---xx flac 0.5563 gd72-11-19s2t04.flac
8:15.264 285271874 B cxx -- ---xx flac 0.5352 gd72-11-19s2t05.flac
6:05.306 210416150 B cxx -- ---xx flac 0.5475 gd72-11-19s2t06.flac
1:07.994 39164678 B cxx -- ---xx flac 0.5388 gd72-11-19s2t07.flac
25:40.219 887166278 B cxx -- ---xx flac 0.5490 gd72-11-19s2t08.flac
6:00.730 207780734 B cxx -- ---xx flac 0.5957 gd72-11-19s2t09.flac
8:32.233 295046258 B cxx -- ---xx flac 0.5751 gd72-11-19s2t10.flac
5:03.292 174696332 B cxx -- ---xx flac 0.5642 gd72-11-19s2t11.flac
4:54.467 169613300 B cxx -- ---xx flac 0.5548 gd72-11-19s2t12.flac
8:35.446 296897150 B cxx -- ---xx flac 0.5742 gd72-11-19s2t13.flac
7:55.287 273765428 B cxx -- ---xx flac 0.5530 gd72-11-19s2t14.flac
200:38.205 6934007444 B 0.5560 (31 files)
Checksums4327dce821a1ac6dc13c17b060da88bc *gd72-11-19s1t01.flac
3f144f3f646beff729addc6e5520f2ea *gd72-11-19s1t02.flac
b62ab2bf886b14dc85c85d3689976543 *gd72-11-19s1t03.flac
ea37582b704e7d0d836b5d45c24e4aed *gd72-11-19s1t04.flac
3e17c1eaf58bca79e744fd5d88b317a4 *gd72-11-19s1t05.flac
fa9b0d431c206830f5f3cb1c2e2cd48c *gd72-11-19s1t06.flac
6deb60334d47aabbeed7f9571918e162 *gd72-11-19s1t07.flac
cfc88bc45cd0d9deb5acbbbfa477db42 *gd72-11-19s1t08.flac
736c93121bd48a1219161f2004d11c41 *gd72-11-19s1t09.flac
537b30ac5f6adfdc5289fda0fe5a7c02 *gd72-11-19s1t10.flac
a5897994a6cf3b2a17cad24740e91e91 *gd72-11-19s1t11.flac
f87a31b8a8ee0aeb5a957314dfdc5e3d *gd72-11-19s1t12.flac
231297711a7fd72f3bd2f2204f0ec0fe *gd72-11-19s1t13.flac
758a2aef3eaa25d82e12d039f93aae3a *gd72-11-19s1t14.flac
622a00513204b51b31238c5e2b6c6426 *gd72-11-19s1t15.flac
5aa9e4a6283f121232b77764c305dd3e *gd72-11-19s1t16.flac
9edc612c06f62ccff27d69f852081cda *gd72-11-19s1t17.flac
cd5f7dbc80d3c5c3436dec80660aa63d *gd72-11-19s2t01.flac
1eb62006156c980acb8a934c7615a023 *gd72-11-19s2t02.flac
fb47fd4b6f9f04caf56a3cc80f8b172e *gd72-11-19s2t03.flac
dd6eb9cfc3b442af0959bff5b0c5df3b *gd72-11-19s2t04.flac
64b90a90301e481f110af4d99f45473a *gd72-11-19s2t05.flac
912f279eb5c88b1d9a179115851f2ba7 *gd72-11-19s2t06.flac
c991a980bb80723a79619103066b81d4 *gd72-11-19s2t07.flac
f22c78164ec031a67d2ab03cb4a3c391 *gd72-11-19s2t08.flac
12986c19284e5f40425a1fbd924358aa *gd72-11-19s2t09.flac
919a9df411b556f696ed54fcca0e4d6e *gd72-11-19s2t10.flac
c155a6d5fb31f7aa68f5c350f325b92b *gd72-11-19s2t11.flac
a45ac5497371a0dad194765a5d4db828 *gd72-11-19s2t12.flac
6c3e75c01c2e2cbb4d5f02a6cbe592ae *gd72-11-19s2t13.flac
840719a199e7ec5526759a09e53f7e2a *gd72-11-19s2t14.flac
TypeGrateful Dead
Last seederLast activity 9:04 ago
Size3.590 GB (3855017797 Bytes)
Added2012-11-09 10:10:34
Views0
Hits653
Snatched312 times
Upped byWHARFRAT73
Num files
[See full list]
34 files
Seeders
[Hide list]
3 Seeder(s)
ip:portclient
version
ul
bytes
dl
bytes
ratiocompleteul
rate
dl
rate
time
connected
time
left
idle
98.236.88.xxx:46534 2.739 GB 0 B 100.00%
0 B/s N/A 19:50:54 N/A 19:47
174.59.174.xxx:51413 0 B 0 B N/A 100.00%
N/A N/A 15:08:00 N/A 1:07:31
174.59.174.xxx:51413 0 B 0 B N/A 100.00%
N/A N/A 39:05 N/A 39:05
0 of 3 firewalled (0%) 100.00%
N/AN/A
Leechers
[Hide list]
0 Leecher(s)

Add a comment

hseamons 2012-11-09 22:25:11
If it says "Gans" and "Miller", it's an automatic download for me. Thank you.
simonwagstaff 2012-11-10 09:16:51
Thanks for the 24 bit!!!!
djscomics 2012-11-23 18:25:36
Like Simon says, "thanks for the 24 bit"....love the hi-rez stuff, hard drive space is cheap and plentiful.....better sound is a good thing....Kev
thewaymouth 2012-12-07 17:22:11
Ain't that heaven sent.

Add a comment


http://etree.org : http://db.etree.org : http://forums.etree.org : http://wiki.etree.org : Legal : RSS Feed

Contents designed & maintained by the etree.org volunteers
1998-2014, etree.org, except where noted. All Rights Reserved.
Read our terms of service and privacy guidelines