bt.etree.org
etree.org Community Bittorrent Tracker
ArtistGrateful Dead
Showgd1988-10-18.NAK300.tobin.122747.flac16
Report this as
non-Trade-Friendly
Email us
Torrentgd1988-10-18.NAK300.tobin.122747.flac16.torrent (click to download)
Downloads asgd1988-10-18.NAK300.tobin.122747.flac16
Info hash3590e60994707c0abb1ca9c56d24664eed449659
db linkhttp://db.etree.org/shn/122747 | Show | Source
DescriptionGrateful Dead
Lakefront Arena, University of New Orleans
New Orleans, LA
10-18-88 - Tuesday

Nak 300 Shotguns -> 0 Decks -> Panasonic AG-7400 -> S-VHS Master
LCPM audio from video soundtrack
Thanks to Peanut Production for supplying this audio

Set 1:
d1t01 - Hell In A Bucket
d1t02 - They Love Each Other
d1t03 - Little Red Rooster
d1t04 - Loser
d1t05 - Beat It On Down The Line
d1t06 - Greatest Story Ever Told
d1t07 - Peggy-O
d1t08 - When I Paint My Masterpiece
d1t09 - Bird Song

Set 2:
d2t01 - Scarlet Begonias >
d2t02 - Fire On The Mountain
d2t03 - Estimated Prophet >
d2t04 - Eyes Of The World >
d2t05 - Drums* >
d3t01 - Space >
d3t02 - I Will Take You Home >
d3t03 - The Other One >
d3t04 - Wharf Rat >
d3t05 - Throwing Stones >
d3t06 - Not Fade Away
ENCORE
d3t07 - Iko Iko**
d3t08 - Knockin' On Heavens Door**

*w/ members of Neville Brothers,
** w/ the Bangles and the Neville Brothers

Brokedown House Production

length expanded size cdr WAVE problems fmt ratio filename
6:34.66 69656876 B --- -- ----- wav 1.0000 gd1988-10-18d1t01.wav
6:53.71 73020236 B --- -- ----- wav 1.0000 gd1988-10-18d1t02.wav
10:34.64 111988172 B --- -- ----- wav 1.0000 gd1988-10-18d1t03.wav
8:25.58 89218460 B --- -- ----- wav 1.0000 gd1988-10-18d1t04.wav
3:10.12 33544268 B --- -- ----- wav 1.0000 gd1988-10-18d1t05.wav
6:09.19 65136332 B --- -- ----- wav 1.0000 gd1988-10-18d1t06.wav
6:20.54 67159052 B --- -- ----- wav 1.0000 gd1988-10-18d1t07.wav
4:55.08 52056860 B --- -- ----- wav 1.0000 gd1988-10-18d1t08.wav
9:45.50 103311644 B --- -- ----- wav 1.0000 gd1988-10-18d1t09.wav
7:39.09 80988812 B --- -- ----- wav 1.0000 gd1988-10-18d2t01.wav
9:30.74 100722092 B --- -- ----- wav 1.0000 gd1988-10-18d2t02.wav
10:18.17 109055228 B --- -- ----- wav 1.0000 gd1988-10-18d2t03.wav
8:32.52 90439148 B --- -- ----- wav 1.0000 gd1988-10-18d2t04.wav
9:55.29 105026252 B --- -- ----- wav 1.0000 gd1988-10-18d2t05.wav
6:42.41 71009276 B --- -- ----- wav 1.0000 gd1988-10-18d3t01.wav
4:07.37 43657868 B --- -- ----- wav 1.0000 gd1988-10-18d3t02.wav
5:42.21 60378236 B --- -- ----- wav 1.0000 gd1988-10-18d3t03.wav
8:14.17 87181628 B --- -- ----- wav 1.0000 gd1988-10-18d3t04.wav
8:53.54 94148252 B --- -- ----- wav 1.0000 gd1988-10-18d3t05.wav
8:59.66 95234876 B --- -- ----- wav 1.0000 gd1988-10-18d3t06.wav
5:26.44 57609932 B --- -- ----- wav 1.0000 gd1988-10-18d3t07.wav
6:47.35 71877164 B --- -- ----- wav 1.0000 gd1988-10-18d3t08.wav
163:40.73 1732420664 B 1.0000 (22 files)
Checksums
md5:
ac50da4e231fd434da9d4c36065b843f *gd1988-10-18d1t01.flac
169804560af5c8f245c57e27d792e558 *gd1988-10-18d1t02.flac
9155741ca9b4b33c146d0546d31947e5 *gd1988-10-18d1t03.flac
e1bdc5d231b0e1270158f48341a1c6c9 *gd1988-10-18d1t04.flac
c92df723b8d8446558477537f08ff3b4 *gd1988-10-18d1t05.flac
c6dad23ad2615f020b6795ab724c49c3 *gd1988-10-18d1t06.flac
94bc02e9adf1b914d4518bcf9f6b06d2 *gd1988-10-18d1t07.flac
d382533d885b16954e69dcc44990c6d4 *gd1988-10-18d1t08.flac
797f1b348202b335801bf5f2ee507fc6 *gd1988-10-18d1t09.flac
b32b608de098a976dd2bc2802a785919 *gd1988-10-18d2t01.flac
00927a1d31ae04820d1f5391706506c0 *gd1988-10-18d2t02.flac
727e8be5ba2f37ec582980e1962c3250 *gd1988-10-18d2t03.flac
7368d24bae03de1d6e7ecf7fc1426aef *gd1988-10-18d2t04.flac
0977c86724531b6ef93067914bcaa8cf *gd1988-10-18d2t05.flac
e346a6947d03af3731f52693ac5ce34c *gd1988-10-18d3t01.flac
82ef7be6ec8d320448f717aab525d580 *gd1988-10-18d3t02.flac
0d4b7a6e6447c8daf2d56f09ea7c1611 *gd1988-10-18d3t03.flac
6f38cad64465a5f485070b5537cf707d *gd1988-10-18d3t04.flac
9af16a520c49d09205e207a575727785 *gd1988-10-18d3t05.flac
196e2afc8d224e71df99287f027a3041 *gd1988-10-18d3t06.flac
e9cff5f31482f3d5ee5e3610310d73e6 *gd1988-10-18d3t07.flac
8b875563442e240de5e794565bd29d37 *gd1988-10-18d3t08.flac

ffp:
gd1988-10-18d1t01.flac:ecac0132df48a808d7bafbde04299de1
gd1988-10-18d1t02.flac:8e4e6e68caf40db94506ddd23105b290
gd1988-10-18d1t03.flac:2910ab0b89c1f4bda10de3dc3052c143
gd1988-10-18d1t04.flac:af098fe78183cf4860e2817b2fe2e692
gd1988-10-18d1t05.flac:a8c0d3c9301bcac47e077311de826ff1
gd1988-10-18d1t06.flac:e181449c7d5e85e0a43ba156b4ca550b
gd1988-10-18d1t07.flac:24a50a5e9a0d503e6423a3fe7d39a3f5
gd1988-10-18d1t08.flac:0faec7eadd64de64452791bcbcc68a3e
gd1988-10-18d1t09.flac:94cdb88bdc90b536da4644d63f18d5f0
gd1988-10-18d2t01.flac:c2842a32f0c50ae351a8ac7f81726694
gd1988-10-18d2t02.flac:91e89954179c0bb1f077fc8be63e284e
gd1988-10-18d2t03.flac:bd3a40393c127dbe1bb12556863e9282
gd1988-10-18d2t04.flac:49009893e14a8dab573ebe7765fbd505
gd1988-10-18d2t05.flac:9512a06f86017b28e6ef4c149c80c524
gd1988-10-18d3t01.flac:cb665fdf9ce851c0448ae9bfe6ee3a35
gd1988-10-18d3t02.flac:c77bfe44f1c7b3eb27d1d7343aefd23b
gd1988-10-18d3t03.flac:c71e6879eacaedce9a40bf10a88bb1a7
gd1988-10-18d3t04.flac:95c5322856210960ae1dbd6c7f0b0a7d
gd1988-10-18d3t05.flac:92d0c94082410f88d716bf736ac2fcbc
gd1988-10-18d3t06.flac:585858d4cb86eb5597fd9278c5e6aaa4
gd1988-10-18d3t07.flac:89baa8454a46febb482e45987eabe7de
gd1988-10-18d3t08.flac:050d4a597f729143f5e05f8278997494
TypeGrateful Dead
Last seederLast activity 32:55 ago
Size936.67 MB (982170177 Bytes)
Added2012-11-09 23:51:51
Views0
Hits262
Snatched81 times
Upped bykevtobin
Num files
[See full list]
26 files
Seeders
[Hide list]
0 Seeder(s)
Leechers
[Hide list]
1 Leecher(s)
ip:portclient
version
ul
bytes
dl
bytes
ratiocompleteul
rate
dl
rate
time
connected
time
left
idle
72.8.156.xxx:10091 0 B 0 B N/A 6.41%
N/A N/A 6:40:33 N/A 32:55
0 of 1 firewalled (0%) 6.41%
N/AN/A

Add a comment

albertpujols 2012-11-10 13:05:27
Great sound on this one - thanks!
sprobeck 2012-11-10 15:16:17
Hoping for the best this time.
sprobeck 2012-11-10 15:29:58
Got it. Thanks!!
mmwarchives 2012-11-15 13:03:20
Thanks for this kev!! ANy chance you made a matrix of this as well??

Add a comment


http://etree.org : http://db.etree.org : http://forums.etree.org : http://wiki.etree.org : Legal : RSS Feed

Contents designed & maintained by the etree.org volunteers
1998-2014, etree.org, except where noted. All Rights Reserved.
Read our terms of service and privacy guidelines