bt.etree.org
etree.org Community Bittorrent Tracker
ArtistOther
ShowDopapod The Spot Underground Providence, Rhode Island 11/9/2012 (Schoeps CCM4V'S FOB)
Report this as
non-Trade-Friendly
Email us
Torrentdopapod2012-11-09.flac16.torrent (click to download)
Downloads asdopapod2012-11-09.flac16
Info hashf10757f0f3ad5c84040a56cd9addd401c741a4bd
DescriptionDopapod
The Spot Underground
Providence, Rhode Island
11/9/2012

Source: Schoeps CCM4V'S(din)>Lunatec V2>Benchmark AD2K>
Sound Devices 722 (24/48)
FOB/DLFC/KFC/ZFC/AARP 12' From Stage, 7' High
DSP: Sound Devices 722>Sound Forge 9.0>CD Wave>flac(16)
Recorded By: Z-Man
Seeded By: Z-Man

Disc I

01 Sonic
02 Flipped
03 Blast
04 Psycho Nature
05 French Bowling

Disc II

01 *Carolina
02 Vol. 3 #86 >
03 Trapper Keeper >
04 Vol. 3 #86
05 1/2 Chub (Unfinished) >
06 Turnin' Knobs >
07 Weird Charlie Part I
Encore:
08Thanks
09 Nuggy Jawson >
10 #Indian Grits

* Rob And Eli Duet
# With Derrick Johnson On Tombone From Your Mama's Zbig Fat Booty Band

Eli Winderman - Keyboards
Neal Evans - Drums
Rob Campa - Guitar
Chuck Jones - Bass

Flac Fingerprint

dopapod2012-11-09d01t01.flac:3e57e3328665f274dacf1f4dee2e5c8e
dopapod2012-11-09d01t02.flac:484c4bc452da583ea5ee9953a8be1c85
dopapod2012-11-09d01t03.flac:b2743344b6295305eea421bcf09df3c0
dopapod2012-11-09d01t04.flac:fe2babca13ab38c7aace6cac91a52146
dopapod2012-11-09d01t05.flac:805d17dc684fb18965905564f81ae32c
dopapod2012-11-09d02t01.flac:b024c0db1f1adc4bf89ad2552908a443
dopapod2012-11-09d02t02.flac:4857309d2305aa1d6be6c27e08e964da
dopapod2012-11-09d02t03.flac:3ac329a619feab9356953e22e2df0d2a
dopapod2012-11-09d02t04.flac:90275c9692fc6e940456eee7736a1578
dopapod2012-11-09d02t05.flac:51b364428e59475272ff1d82858545cd
dopapod2012-11-09d02t06.flac:bd29c7ed3d03fe2686b88d19a3a1db4f
dopapod2012-11-09d02t07.flac:37e3403ea50c3e7899106db4eb00aa56
dopapod2012-11-09d02t08.flac:1317d830df54432a0ab818ad725dda54
dopapod2012-11-09d02t09.flac:c744ba43758debf7b6ce594041754133
dopapod2012-11-09d02t10.flac:6db3450786c189bb1b4aa762e028d288

Shntool

length expanded size cdr WAVE problems fmt ratio filename
14:56.49 158169692 B --- -- ---xx flac 0.5456 dopapod2012-11-09d01t01.flac
12:02.63 127509020 B --- -- ---xx flac 0.5529 dopapod2012-11-09d01t02.flac
8:44.54 92560652 B --- -- ---xx flac 0.5702 dopapod2012-11-09d01t03.flac
5:22.11 56826716 B --- -- ---xx flac 0.5704 dopapod2012-11-09d01t04.flac
11:08.21 117884636 B --- -- ---xx flac 0.5531 dopapod2012-11-09d01t05.flac
4:37.48 48975740 B --- -- ---xx flac 0.4009 dopapod2012-11-09d02t01.flac
4:52.44 51612332 B --- -- ---xx flac 0.5522 dopapod2012-11-09d02t02.flac
8:34.71 90836636 B --- -- ---xx flac 0.5637 dopapod2012-11-09d02t03.flac
10:20.48 109480940 B --- -- ---xx flac 0.5824 dopapod2012-11-09d02t04.flac
8:17.39 87762572 B --- -- ---xx flac 0.5560 dopapod2012-11-09d02t05.flac
8:33.66 90648476 B --- -- ---xx flac 0.5525 dopapod2012-11-09d02t06.flac
8:51.03 93675500 B --- -- ---xx flac 0.5964 dopapod2012-11-09d02t07.flac
0:52.23 9226940 B --- -- ---xx flac 0.4169 dopapod2012-11-09d02t08.flac
11:44.30 124256204 B --- -- ---xx flac 0.6097 dopapod2012-11-09d02t09.flac
10:15.34 108566012 B --- -- ---xx flac 0.5677 dopapod2012-11-09d02t10.flac
129:15.04 1367992068 B 0.5601 (15 files)




Checksumsdopapod2012-11-09d01t01.flac:3e57e3328665f274dacf1f4dee2e5c8e<br />
dopapod2012-11-09d01t02.flac:484c4bc452da583ea5ee9953a8be1c85<br />
dopapod2012-11-09d01t03.flac:b2743344b6295305eea421bcf09df3c0<br />
dopapod2012-11-09d01t04.flac:fe2babca13ab38c7aace6cac91a52146<br />
dopapod2012-11-09d01t05.flac:805d17dc684fb18965905564f81ae32c<br />
dopapod2012-11-09d02t01.flac:b024c0db1f1adc4bf89ad2552908a443<br />
dopapod2012-11-09d02t02.flac:4857309d2305aa1d6be6c27e08e964da<br />
dopapod2012-11-09d02t03.flac:3ac329a619feab9356953e22e2df0d2a<br />
dopapod2012-11-09d02t04.flac:90275c9692fc6e940456eee7736a1578<br />
dopapod2012-11-09d02t05.flac:51b364428e59475272ff1d82858545cd<br />
dopapod2012-11-09d02t06.flac:bd29c7ed3d03fe2686b88d19a3a1db4f<br />
dopapod2012-11-09d02t07.flac:37e3403ea50c3e7899106db4eb00aa56<br />
dopapod2012-11-09d02t08.flac:1317d830df54432a0ab818ad725dda54<br />
dopapod2012-11-09d02t09.flac:c744ba43758debf7b6ce594041754133<br />
dopapod2012-11-09d02t10.flac:6db3450786c189bb1b4aa762e028d288<br />
TypeOther
Last seederLast activity 10 days, 20:59:55 ago
Size730.77 MB (766271897 Bytes)
Added2012-11-10 12:03:05
Views0
Hits164
Snatched42 times
Upped byzmanatl
Num files16 files
File List
[Hide list]
filenamesizemd5
dopapod2012-11-09d01t01.flac82.31 MBN/A
dopapod2012-11-09d02t09.flac72.25 MBN/A
dopapod2012-11-09d01t02.flac67.23 MBN/A
dopapod2012-11-09d01t05.flac62.18 MBN/A
dopapod2012-11-09d02t04.flac60.80 MBN/A
dopapod2012-11-09d02t10.flac58.77 MBN/A
dopapod2012-11-09d02t07.flac53.28 MBN/A
dopapod2012-11-09d01t03.flac50.33 MBN/A
dopapod2012-11-09d02t03.flac48.84 MBN/A
dopapod2012-11-09d02t06.flac47.77 MBN/A
dopapod2012-11-09d02t05.flac46.54 MBN/A
dopapod2012-11-09d01t04.flac30.91 MBN/A
dopapod2012-11-09d02t02.flac27.18 MBN/A
dopapod2012-11-09d02t01.flac18.72 MBN/A
dopapod2012-11-09d02t08.flac3.67 MBN/A
dopapod2012-11-09.textfile.txt3.1 kBN/A
Peers
[See full list]
1 seeder, 0 leechers = 1 peer total

Add a comment

bvaz 2012-11-10 14:05:55
nice work. I probably won't get to it until tomorrow but I'll try and help fill in some of the setlist.
always a pleasure to hang out.

Add a comment


http://etree.org : http://db.etree.org : http://forums.etree.org : http://wiki.etree.org : Legal : RSS Feed

Contents designed & maintained by the etree.org volunteers
1998-2014, etree.org, except where noted. All Rights Reserved.
Read our terms of service and privacy guidelines