bt.etree.org
etree.org Community Bittorrent Tracker
ArtistOther
ShowYo Mama's Big Fat Booty Band The Spot Underground Providence, Rhode Island 11/9/2012 (Schoeps CCM4V'S FOB)
Report this as
non-Trade-Friendly
Email us
Torrentymbfbb2012-11-09.flac16.torrent (click to download)
Downloads asymbfbb2012-11-09.flac16
Info hash6a553636402ba3e84b362db6109328880f43c5ae
DescriptionYo Mama's Big Fat Booty Band
The Spot Underground
Providence, Rhode Island
11/9/2012

Source: Schoeps CCM4V'S(din)>Lunatec V2>Benchmark AD2K>
Sound Devices 722 (24/48)
FOB/DLFC/KFC/ZFC/AARP 12' From Stage, 7' High
DSP: Sound Devices 722>Sound Forge 9.0>CD Wave>flac(16)
Recorded By: Z-Man
Seeded By: Z-Man

Disc I

01 ?
02 ?
03 ?
04 ?
05 Across The Tracks
06 ?
07 Lovin'

Disc II

01 *Only Way
02 ?
03 ?
04 ?
05 ?
06 ?

* With Rob Campa From Dopapod On Guitar

Flac Fingerprint

ymbfbb2012-11-09d01t01.flac:5519d7b1d49291effc72cd57c207f7bc
ymbfbb2012-11-09d01t02.flac:4a9cd99712aaf0633d28dae10fbecd62
ymbfbb2012-11-09d01t03.flac:30b84c9eba6ec250f922459d47fdeb2f
ymbfbb2012-11-09d01t04.flac:1e978249fa3b01ffc0a246a9ab141ffb
ymbfbb2012-11-09d01t05.flac:eb4326dc37738a023067a0b68fd609bb
ymbfbb2012-11-09d01t06.flac:c545b5029c5daa2b7bca13e7518b6ce7
ymbfbb2012-11-09d01t07.flac:3c4987b384144bde770ce9ddec9fd2ec
ymbfbb2012-11-09d02t01.flac:215e393b03c5ac27e90d91d21e7cd900
ymbfbb2012-11-09d02t02.flac:eb527040f364be61e697d347e9dc3065
ymbfbb2012-11-09d02t03.flac:87306baa9ac9958c41feac7bf3272719
ymbfbb2012-11-09d02t04.flac:2a057be4b6728bc12f25e3cf441df6ac
ymbfbb2012-11-09d02t05.flac:7b04ec39ab0121d0fdea2a7c26935a08
ymbfbb2012-11-09d02t06.flac:bee64014604cded96ae6ac5fc891fa46

Shntool

length expanded size cdr WAVE problems fmt ratio filename
4:01.13 42543020 B --- -- ---xx flac 0.5915 ymbfbb2012-11-09d01t01.flac
6:09.63 65239820 B --- -- ---xx flac 0.5424 ymbfbb2012-11-09d01t02.flac
5:18.27 56158748 B --- -- ---xx flac 0.5577 ymbfbb2012-11-09d01t03.flac
6:56.17 73422428 B --- -- ---xx flac 0.5613 ymbfbb2012-11-09d01t04.flac
6:12.48 65733740 B --- -- ---xx flac 0.5976 ymbfbb2012-11-09d01t05.flac
9:44.23 103071740 B --- -- ---xx flac 0.5679 ymbfbb2012-11-09d01t06.flac
4:17.20 45381884 B --- -- ---xx flac 0.5400 ymbfbb2012-11-09d01t07.flac
10:07.21 107124236 B --- -- ---xx flac 0.5772 ymbfbb2012-11-09d02t01.flac
7:40.12 81172268 B --- -- ---xx flac 0.5407 ymbfbb2012-11-09d02t02.flac
7:38.69 80953532 B --- -- ---xx flac 0.5710 ymbfbb2012-11-09d02t03.flac
5:17.03 55925900 B --- -- ---xx flac 0.5778 ymbfbb2012-11-09d02t04.flac
4:07.28 43636700 B --- -- ---xx flac 0.5436 ymbfbb2012-11-09d02t05.flac
8:09.30 86330204 B --- -- ---xx flac 0.5750 ymbfbb2012-11-09d02t06.flac
85:39.74 906694220 B 0.5658 (13 files)






Checksumsymbfbb2012-11-09d01t01.flac:5519d7b1d49291effc72cd57c207f7bc<br />
ymbfbb2012-11-09d01t02.flac:4a9cd99712aaf0633d28dae10fbecd62<br />
ymbfbb2012-11-09d01t03.flac:30b84c9eba6ec250f922459d47fdeb2f<br />
ymbfbb2012-11-09d01t04.flac:1e978249fa3b01ffc0a246a9ab141ffb<br />
ymbfbb2012-11-09d01t05.flac:eb4326dc37738a023067a0b68fd609bb<br />
ymbfbb2012-11-09d01t06.flac:c545b5029c5daa2b7bca13e7518b6ce7<br />
ymbfbb2012-11-09d01t07.flac:3c4987b384144bde770ce9ddec9fd2ec<br />
ymbfbb2012-11-09d02t01.flac:215e393b03c5ac27e90d91d21e7cd900<br />
ymbfbb2012-11-09d02t02.flac:eb527040f364be61e697d347e9dc3065<br />
ymbfbb2012-11-09d02t03.flac:87306baa9ac9958c41feac7bf3272719<br />
ymbfbb2012-11-09d02t04.flac:2a057be4b6728bc12f25e3cf441df6ac<br />
ymbfbb2012-11-09d02t05.flac:7b04ec39ab0121d0fdea2a7c26935a08<br />
ymbfbb2012-11-09d02t06.flac:bee64014604cded96ae6ac5fc891fa46
Visibleno (dead)
TypeOther
Last seederLast activity 189 days, 06:39:52 ago
Size489.25 MB (513018187 Bytes)
Added2012-11-10 12:42:11
Views0
Hits134
Snatched32 times
Upped byzmanatl
Num files
[See full list]
14 files
Seeders
[Hide list]
0 Seeder(s)
Leechers
[Hide list]
0 Leecher(s)

Add a comment

discopanic1 2012-11-10 13:23:07
I like this band. Glad you got to see them.
Halowdance 2012-11-10 14:20:32
Thank you!!

Add a comment


http://etree.org : http://db.etree.org : http://forums.etree.org : http://wiki.etree.org : Legal : RSS Feed

Contents designed & maintained by the etree.org volunteers
1998-2014, etree.org, except where noted. All Rights Reserved.
Read our terms of service and privacy guidelines