bt.etree.org
etree.org Community Bittorrent Tracker
ArtistOther
ShowHot Day At The Zoo Brighton Music Hall Allston, Massachusetts 11/10/2012 (Schoeps CCM4V'S FOB)
Report this as
non-Trade-Friendly
Email us
Torrenthdatz2012-11-10.flac16.torrent (click to download)
Downloads ashdatz2012-11-10.flac16
Info hashdf1204e289185e46a71955b6e0a4ba99630ba441
DescriptionHot Day At The Zoo
Brighton Music Hall
Allston, Massachusetts
11/10/2012

Source: Schoeps CCM4V'S(din)>Lunatec V2>Benchmark AD2K>
Sound Devices 722 (24/48)
FOB/DFC/KFC/ZFC/AARP 33' From Stage, 7' High
DSP: Sound Devices 722>Sound Forge 9.0>CD Wave>flac(16)
Recorded By: Z-Man
Seeded By: Z-Man

Disc I

01 Greeting/Tuning
02 American Girl >
03 Nice Shirt
04 Boom Boom Boom >
05 Boston Blues
06 ?
07 Last Days Of Summer
08 Country Girl
09 Kickin' Up Dust >
10 Foxy Lady
11 Long Way Home >
12 One Day
13 Old Mill

Disc II

01 420 Polka >
02 On The Road Again
03 Swingin' Doors
04 Stay All Night
05 Lay My Burden Down
06 Songbirds
07 Full Of Sin >
08 Devil Woman >
09 Saw Her Standin' There >
10 Fire Down The Road
Encore:
11 Crowd/Tuning
12 Eat My Dust >
13 Ana Maribel

Jon Cumming - Banjo, Dobro, And Vocals
Michael Dion - Guitar, Harmonica, And Vocals
Jed Rosen - Upright Bass And Vocals
JT Lawrence - Mandolin, And Vocals
Nick Hayes - Keyboards and Accordian

Flac Fingerprint

hotday2012-11-10d01t01.flac:e9e892c86e399daa740a5b1621942a7a
hotday2012-11-10d01t02.flac:eb5a65f823bff37545f8bc6ab329f63f
hotday2012-11-10d01t03.flac:77a2ade822212dd9074ab2f3265785b7
hotday2012-11-10d01t04.flac:1a44227d3fbcc79729db1714126bea13
hotday2012-11-10d01t05.flac:ca54614797821ec4f88610ddd4c465b9
hotday2012-11-10d01t06.flac:b089b1590b97bcc6c137bfb61550133f
hotday2012-11-10d01t07.flac:0b244a825769b4bbd1c2d7a2e85c5093
hotday2012-11-10d01t08.flac:116b85784b032ccb71b7a60a7b9ce9ac
hotday2012-11-10d01t09.flac:f4ee93406141e6713110158fba4e7f29
hotday2012-11-10d01t10.flac:bd04f6832bfd59ee33a0294acab5026d
hotday2012-11-10d01t11.flac:3ff51000c6e100e20e601fc9ceee8196
hotday2012-11-10d01t12.flac:c7c6ec6e314f63b534541a3e148ff7f7
hotday2012-11-10d01t13.flac:30f19c03ceb2e27d83815e961ef7745f
hotday2012-11-10d02t01.flac:fdf1e2302c5ee154951fe261674b39c8
hotday2012-11-10d02t02.flac:c7b310681d3fa7da52f98a462384cfbf
hotday2012-11-10d02t03.flac:34ef07052c3431d1fc5512248ec4826e
hotday2012-11-10d02t04.flac:3bbdcef84fb72a57eff3322f3f5a386d
hotday2012-11-10d02t05.flac:648cf076805005df25bcbb7c6e2069ce
hotday2012-11-10d02t06.flac:944dacd433eaef6b22092a79d981c3cb
hotday2012-11-10d02t07.flac:caff740fe2e57d04f5676c328807a4c1
hotday2012-11-10d02t08.flac:78aa664468692a8c4941681f17fee233
hotday2012-11-10d02t09.flac:109ec7432ff2e7676d43db773319ab9c
hotday2012-11-10d02t10.flac:7df215fbeea695d6defeb22a82363d35
hotday2012-11-10d02t11.flac:aefa35100aaf4029fb3bdccf91b664e2
hotday2012-11-10d02t12.flac:bfb41083f4f54b41c6bef620ebc195aa
hotday2012-11-10d02t13.flac:3027019a36773227506c0a83c1743a3e

Shntool

length expanded size cdr WAVE problems fmt ratio filename
0:36.73 6522140 B --- -- ---xx flac 0.3725 hotday2012-11-10d01t01.flac
3:21.71 35623436 B --- -- ---xx flac 0.4726 hotday2012-11-10d01t02.flac
4:41.71 49735436 B --- -- ---xx flac 0.4438 hotday2012-11-10d01t03.flac
3:45.17 39730028 B --- -- ---xx flac 0.4861 hotday2012-11-10d01t04.flac
6:43.26 71150396 B --- -- ---xx flac 0.5019 hotday2012-11-10d01t05.flac
3:44.04 39523052 B --- -- ---xx flac 0.4705 hotday2012-11-10d01t06.flac
4:49.55 51109004 B --- -- ---xx flac 0.4442 hotday2012-11-10d01t07.flac
4:21.19 46085132 B --- -- ---xx flac 0.4881 hotday2012-11-10d01t08.flac
3:06.71 32977436 B --- -- ---xx flac 0.5013 hotday2012-11-10d01t09.flac
7:10.18 75894380 B --- -- ---xx flac 0.4650 hotday2012-11-10d01t10.flac
4:09.71 44090636 B --- -- ---xx flac 0.4704 hotday2012-11-10d01t11.flac
4:41.68 49728380 B --- -- ---xx flac 0.4904 hotday2012-11-10d01t12.flac
3:13.37 34132268 B --- -- ---xx flac 0.5230 hotday2012-11-10d01t13.flac
3:24.70 36150284 B --- -- ---xx flac 0.4953 hotday2012-11-10d02t01.flac
4:20.10 45887564 B --- -- ---xx flac 0.4798 hotday2012-11-10d02t02.flac
3:29.41 36964076 B --- -- ---xx flac 0.5042 hotday2012-11-10d02t03.flac
6:56.32 73457708 B --- -- ---xx flac 0.4944 hotday2012-11-10d02t04.flac
5:37.35 59529164 B --- -- ---xx flac 0.4073 hotday2012-11-10d02t05.flac
4:19.54 45814652 B --- -- ---xx flac 0.4996 hotday2012-11-10d02t06.flac
2:36.02 27523148 B --- -- ---xx flac 0.5048 hotday2012-11-10d02t07.flac
8:08.12 86111468 B --- -- ---xx flac 0.4468 hotday2012-11-10d02t08.flac
3:40.26 38869196 B --- -- ---xx flac 0.4744 hotday2012-11-10d02t09.flac
6:08.57 65049308 B --- -- ---xx flac 0.4789 hotday2012-11-10d02t10.flac
0:48.51 8587196 B --- -- ---xx flac 0.3630 hotday2012-11-10d02t11.flac
2:59.53 31700300 B --- -- ---xx flac 0.4827 hotday2012-11-10d02t12.flac
7:51.27 83147948 B --- -- ---xx flac 0.4782 hotday2012-11-10d02t13.flac
114:48.21 1215093736 B 0.4749 (26 files)



Checksumshotday2012-11-10d01t01.flac:e9e892c86e399daa740a5b1621942a7a<br />
hotday2012-11-10d01t02.flac:eb5a65f823bff37545f8bc6ab329f63f<br />
hotday2012-11-10d01t03.flac:77a2ade822212dd9074ab2f3265785b7<br />
hotday2012-11-10d01t04.flac:1a44227d3fbcc79729db1714126bea13<br />
hotday2012-11-10d01t05.flac:ca54614797821ec4f88610ddd4c465b9<br />
hotday2012-11-10d01t06.flac:b089b1590b97bcc6c137bfb61550133f<br />
hotday2012-11-10d01t07.flac:0b244a825769b4bbd1c2d7a2e85c5093<br />
hotday2012-11-10d01t08.flac:116b85784b032ccb71b7a60a7b9ce9ac<br />
hotday2012-11-10d01t09.flac:f4ee93406141e6713110158fba4e7f29<br />
hotday2012-11-10d01t10.flac:bd04f6832bfd59ee33a0294acab5026d<br />
hotday2012-11-10d01t11.flac:3ff51000c6e100e20e601fc9ceee8196<br />
hotday2012-11-10d01t12.flac:c7c6ec6e314f63b534541a3e148ff7f7<br />
hotday2012-11-10d01t13.flac:30f19c03ceb2e27d83815e961ef7745f<br />
hotday2012-11-10d02t01.flac:fdf1e2302c5ee154951fe261674b39c8<br />
hotday2012-11-10d02t02.flac:c7b310681d3fa7da52f98a462384cfbf<br />
hotday2012-11-10d02t03.flac:34ef07052c3431d1fc5512248ec4826e<br />
hotday2012-11-10d02t04.flac:3bbdcef84fb72a57eff3322f3f5a386d<br />
hotday2012-11-10d02t05.flac:648cf076805005df25bcbb7c6e2069ce<br />
hotday2012-11-10d02t06.flac:944dacd433eaef6b22092a79d981c3cb<br />
hotday2012-11-10d02t07.flac:caff740fe2e57d04f5676c328807a4c1<br />
hotday2012-11-10d02t08.flac:78aa664468692a8c4941681f17fee233<br />
hotday2012-11-10d02t09.flac:109ec7432ff2e7676d43db773319ab9c<br />
hotday2012-11-10d02t10.flac:7df215fbeea695d6defeb22a82363d35<br />
hotday2012-11-10d02t11.flac:aefa35100aaf4029fb3bdccf91b664e2<br />
hotday2012-11-10d02t12.flac:bfb41083f4f54b41c6bef620ebc195aa<br />
hotday2012-11-10d02t13.flac:3027019a36773227506c0a83c1743a3e
TypeOther
Last seederLast activity 20 days, 17:30:12 ago
Size550.38 MB (577111366 Bytes)
Added2012-11-11 14:24:01
Views0
Hits248
Snatched19 times
Upped byzmanatl
Num files
[See full list]
27 files
Peers
[See full list]
0 seeders, 1 leecher = 1 peer total

Add a comment

2groundhog2 2012-11-11 14:46:59
Thanks Z! I was planning on being there but Mike wanted me to sign some sort of release or something not to share & never got back to me.

I had a fun night at Atwoods with the B3 Kings.

bigdaddybflo 2012-11-12 08:35:04
I heard it on the x , i mean the zzzzzzz-stream !! GO Z GO !
2groundhog2 2012-11-12 11:41:09
01 Greeting/Tuning
02 American Girl >
03 Nice Shirt
04 Boom Boom Boom >
05 Boston Blues
06 ?
07 Last Days Of Summer
08 Country Girl
09 Kickin' Up Dust >
10 Foxy Lady
11 Long Way Home >
12 One Day
13 Old Mill

Disc II

01 El Cumbanchero >
02 On The Road Again
03 Swinging Doors
04 Stay All Night
05 Lay My Burden Down
06 Songbirds
07 Full Of Sin >
08 Devil Woman >
09 I Saw Her Standin' There >
10 Fire Down The Road
Encore:
11 Crowd/Tuning
12 Eat My Dust >
13 Ana Maribel

Add a comment


http://etree.org : http://db.etree.org : http://forums.etree.org : http://wiki.etree.org : Legal : RSS Feed

Contents designed & maintained by the etree.org volunteers
1998-2014, etree.org, except where noted. All Rights Reserved.
Read our terms of service and privacy guidelines