bt.etree.org
etree.org Community Bittorrent Tracker
ArtistOther
ShowThe Primate Fiasco Brighton Music Hall Allston, Massachusetts 11/10/2012 (Schoeps CCM4V'S FOB)
Report this as
non-Trade-Friendly
Email us
Torrentprimate2012-11-10.flac16.torrent (click to download)
Downloads asprimate2012-11-10.flac16
Info hashb1cb7ddb05f8560d32c2438aa3195147e5adc81a
DescriptionThe Primate Fiasco
Brighton Music Hall
Allston, Massachusetts
11/10/2012

Source: Schoeps CCM4V'S(din)>Lunatec V2>Benchmark AD2K>
Sound Devices 722 (24/48)
FOB/DFC/KFC/ZFC/AARP 33' From Stage, 7' High
DSP: Sound Devices 722>Sound Forge 9.0>CD Wave>flac(16)
Recorded By: Z-Man
Seeded By: Z-Man

Disc I

01 Jam >
02 Whale Song
03 Roses Are Free
04 Goosebumps
05 I Wanna Fight Crime With You
06 Casa Deton
07 South Pole And The Pyramids
08 Quinn The Eskimo
09 Demon

Flac Fingerprint

primate2012-11-10d01t01.flac:74cf1dbc46d60921e5cb66d09ba8aa27
primate2012-11-10d01t02.flac:d9bca43d74be5079ce8b6afaaca909e2
primate2012-11-10d01t03.flac:56aea62d868224a65cb5194674d2aa66
primate2012-11-10d01t04.flac:8ae7aef0664c6637a1c1d0a0ef208ee1
primate2012-11-10d01t05.flac:3a687799ffd661fe93fa0ae09412d028
primate2012-11-10d01t06.flac:46adc6b238d22b126b313b2d7f2c2b46
primate2012-11-10d01t07.flac:73fa400c487259062111d2af8ae5f714
primate2012-11-10d01t08.flac:daaac253b05a359247b987a7e18bdc02
primate2012-11-10d01t09.flac:648e9db0cdc063771c7b5401238598cc

Shntool

length expanded size cdr WAVE problems fmt ratio filename
1:38.56 17418956 B --- -- ---xx flac 0.5434 primate2012-11-10d01t01.flac
3:30.33 37121660 B --- -- ---xx flac 0.5742 primate2012-11-10d01t02.flac
4:55.22 52089788 B --- -- ---xx flac 0.5479 primate2012-11-10d01t03.flac
11:36.15 122809724 B --- -- ---xx flac 0.5528 primate2012-11-10d01t04.flac
5:04.00 53625644 B --- -- ---xx flac 0.5625 primate2012-11-10d01t05.flac
5:03.29 53517452 B --- -- ---xx flac 0.5515 primate2012-11-10d01t06.flac
7:12.34 76284812 B --- -- ---xx flac 0.5441 primate2012-11-10d01t07.flac
5:46.73 61206140 B --- -- ---xx flac 0.5577 primate2012-11-10d01t08.flac
11:01.05 116612204 B --- -- ---xx flac 0.5654 primate2012-11-10d01t09.flac
55:48.42 590686380 B 0.5561 (9 files)










Checksumsprimate2012-11-10d01t01.flac:74cf1dbc46d60921e5cb66d09ba8aa27<br />
primate2012-11-10d01t02.flac:d9bca43d74be5079ce8b6afaaca909e2<br />
primate2012-11-10d01t03.flac:56aea62d868224a65cb5194674d2aa66<br />
primate2012-11-10d01t04.flac:8ae7aef0664c6637a1c1d0a0ef208ee1<br />
primate2012-11-10d01t05.flac:3a687799ffd661fe93fa0ae09412d028<br />
primate2012-11-10d01t06.flac:46adc6b238d22b126b313b2d7f2c2b46<br />
primate2012-11-10d01t07.flac:73fa400c487259062111d2af8ae5f714<br />
primate2012-11-10d01t08.flac:daaac253b05a359247b987a7e18bdc02<br />
primate2012-11-10d01t09.flac:648e9db0cdc063771c7b5401238598cc
TypeOther
Last seederLast activity 8:59 ago
Size313.25 MB (328462250 Bytes)
Added2012-11-11 15:14:03
Views0
Hits263
Snatched22 times
Upped byzmanatl
Num files
[See full list]
10 files
Seeders
[Hide list]
1 Seeder(s)
ip:portclient
version
ul
bytes
dl
bytes
ratiocompleteul
rate
dl
rate
time
connected
time
left
idle
50.157.167.xxx:16222 0 B 0 B N/A 100.00%
N/A N/A 1 day, 07:40:01 N/A 8:59
0 of 1 firewalled (0%) 100.00%
N/AN/A
Leechers
[Hide list]
0 Leecher(s)

Add a comment

2groundhog2 2012-11-12 11:06:41
01 Jam >
02 Whale Song
03 Roses Are Free
04 Goosepimps
05 I Wanna Fight Crime With You
06 Casa Deton
07 South Pole & The Pyramids
08 Quinn The Eskimo
09 Demon

Add a comment


http://etree.org : http://db.etree.org : http://forums.etree.org : http://wiki.etree.org : Legal : RSS Feed

Contents designed & maintained by the etree.org volunteers
1998-2014, etree.org, except where noted. All Rights Reserved.
Read our terms of service and privacy guidelines