bt.etree.org
etree.org Community Bittorrent Tracker
ArtistOther
ShowSarah BlackerSolo Acoustic Brighton Music Hall Allston, Massachusetts 11/10/2012 (Schoeps CCM4V'S FOB)
Report this as
non-Trade-Friendly
Email us
Torrentsarah2012-11-10.flac16.torrent (click to download)
Downloads assarah2012-11-10.flac16
Info hashb5cc766e0c7f48e2b183d2d365d5914365c2a382
db linkhttp://db.etree.org/shn/129696 | Show | Source
DescriptionSarah Blacker Solo Acoustic
Brighton Music Hall
Allston, Massachusetts
11/10/2012

Source: Schoeps CCM4V'S(din)>Lunatec V2>Benchmark AD2K>
Sound Devices 722 (24/48)
FOB/DFC/KFC/ZFC/AARP 33' From Stage, 7' High
DSP: Sound Devices 722>Sound Forge 9.0>CD Wave>flac(16)
Recorded By: Z-Man
Seeded By: Z-Man

Disc I

01 Greeting
02 Pluggin' Away
03 Knocked The Winds
04 Shining Giant
05 Can't you See
06 *?
07 The Most Beautiful Thing
08 Perfectly Imperfect
09 #These Summer Nights

* Sarah Acapela
# With Eran Shaysh On Vocals

Flac Fingerprint

sarah2012-11-10d01t01.flac:ff8cac0f61404f4223edcca481199e5e
sarah2012-11-10d01t02.flac:4478f4477b90611c4e7e1ded9c5b7446
sarah2012-11-10d01t03.flac:bf860a8ec517f28859e39063bad2db95
sarah2012-11-10d01t04.flac:9a6a074428130135a6cd51463ccfe8b5
sarah2012-11-10d01t05.flac:b5de229d8a1155d812977f0dca8bc6ae
sarah2012-11-10d01t06.flac:9b7999950c5d4ca3db86050e5d99697c
sarah2012-11-10d01t07.flac:1663ae34c6f7565347c37d8347de3ec3
sarah2012-11-10d01t08.flac:e715320ff7d65e3c77a3da5670bfadbf
sarah2012-11-10d01t09.flac:ec4d486845b1c53677324df7862b79a9

Shntool

length expanded size cdr WAVE problems fmt ratio filename
0:13.32 2368508 B --- -- ---xx flac 0.3673 sarah2012-11-10d01t01.flac
3:37.74 38452892 B --- -- ---xx flac 0.5162 sarah2012-11-10d01t02.flac
3:50.21 40621436 B --- -- ---xx flac 0.5039 sarah2012-11-10d01t03.flac
4:31.02 47809148 B --- -- ---xx flac 0.4969 sarah2012-11-10d01t04.flac
4:33.54 48284252 B --- -- ---xx flac 0.4484 sarah2012-11-10d01t05.flac
3:01.50 32046044 B --- -- ---xx flac 0.4715 sarah2012-11-10d01t06.flac
2:58.44 31502732 B --- -- ---xx flac 0.4590 sarah2012-11-10d01t07.flac
4:27.47 47209388 B --- -- ---xx flac 0.4722 sarah2012-11-10d01t08.flac
6:17.53 66627500 B --- -- ---xx flac 0.5134 sarah2012-11-10d01t09.flac
33:32.02 354921900 B 0.4865 (9 files)





Checksumssarah2012-11-10d01t01.flac:ff8cac0f61404f4223edcca481199e5e<br />
sarah2012-11-10d01t02.flac:4478f4477b90611c4e7e1ded9c5b7446<br />
sarah2012-11-10d01t03.flac:bf860a8ec517f28859e39063bad2db95<br />
sarah2012-11-10d01t04.flac:9a6a074428130135a6cd51463ccfe8b5<br />
sarah2012-11-10d01t05.flac:b5de229d8a1155d812977f0dca8bc6ae<br />
sarah2012-11-10d01t06.flac:9b7999950c5d4ca3db86050e5d99697c<br />
sarah2012-11-10d01t07.flac:1663ae34c6f7565347c37d8347de3ec3<br />
sarah2012-11-10d01t08.flac:e715320ff7d65e3c77a3da5670bfadbf<br />
sarah2012-11-10d01t09.flac:ec4d486845b1c53677324df7862b79a9
TypeOther
Last seederLast activity 25:54 ago
Size164.66 MB (172662533 Bytes)
Added2012-11-11 15:16:01
Views0
Hits261
Snatched26 times
Upped byzmanatl
Num files
[See full list]
10 files
Peers
[See full list]
1 seeder, 0 leechers = 1 peer total

Add a comment

2groundhog2 2012-11-11 15:34:02
# Eran Shaysh
bvaz 2012-11-11 15:44:38
that's a good lineup of music. thanks for capturing.
sean612 2012-11-11 15:52:52
Thanks for the tunes.
zmanatl 2012-11-11 15:54:05
A very nice little performance for Sarah. My first time seeing her. I introduced myself as she was walking by. Super nice and I loved her voice. I told her she had a great stage presence and voice. Very gifted song writer and she is nominated for a Boston Singer/Songwriter of the year award. I hope she gets the votes she needs. i also met Eran with her.

Add a comment


http://etree.org : http://db.etree.org : http://forums.etree.org : http://wiki.etree.org : Legal : RSS Feed

Contents designed & maintained by the etree.org volunteers
1998-2014, etree.org, except where noted. All Rights Reserved.
Read our terms of service and privacy guidelines