bt.etree.org
etree.org Community Bittorrent Tracker
ArtistOther
ShowBarefoot Truth The Royale Boston, Massachusetts 11/11/2012 (Schoeps CCM4V'S FOB)
Report this as
non-Trade-Friendly
Email us
Torrentbarefoot2012-11-11.flac16.torrent (click to download)
Downloads asbarefoot2012-11-11.flac16
Info hash6b5c454914571d0308b6af7f9b2e89b4ac9c3820
DescriptionBarefoot Truth
The Bands Final Performance
The Royale
Boston, Massachusetts
11/11/2012

Source: Schoeps CCM4V'S(din)>Lunatec V2>Benchmark AD2K>
Sound Devices 722 (24/48)
FOB/DFC/KFC/ZFC/AARP 35' From Stage, 7' High Thanks To Brian For Clamp Space
DSP: Sound Devices 722>Sound Forge 9.0>CD Wave>flac(16)
Recorded By: Z-Man
Seeded By: Z-Man

Disc I

01 House PA Burnin' Down The House/Greeting
02 Walk Softly
03 Drink To You
04 Worth
05 *From The Earth
06 *#Rope
07 *#I Prefer
08 Jay Banter
09 @Life Is A Photograph
10 @@Spoonful
11 @^Eagle Front
12 Jay Banter
13 @Reach
14 Banter
15 @Solitude

Disc II

01 Wayno Banter
02 @End Of The Line
03 Banter/Q & A With Jay
04 *Mama's Minstrels
05 *The Ocean >
06 *I Want You Back
07 +I'll Be There
08 *Reelin'
09 Banter/Thanks
10 *Drum Solo >
11 *Roll When You Fall >
12 *Louie Louie >
13 *Roll When You Fall
Encore:
14 Crowd
15 Banter
16 *Remix Of Ignition
17 Andy Banter
18 *All Good Reasons >
19 *Broken Road >
20 Baba O'Riley >
21 *Broken Road
22 Banter On Merch/Outro

* With Dan Holmes On Percussion
# With Jack Gauthier On Mandolin
@ With Dan Holmes On Drums
^ With Noel Weiss On Saxophone
+ Wayno Solo

Flac Fingerprint

barefoot2012-11-11d01t01.flac:4430823ede283a41c779254ce61e6e20
barefoot2012-11-11d01t02.flac:cde92e622b36d5574c158bb5e84c289c
barefoot2012-11-11d01t03.flac:6468c607682ca1aa0c4a351018c7d6e5
barefoot2012-11-11d01t04.flac:cd7d30b8bd37f45bdad602865b16bba0
barefoot2012-11-11d01t05.flac:7efc35ee6307d6a154b4bcea8e95b30c
barefoot2012-11-11d01t06.flac:505bd12bb8d51e59d49782207179cad1
barefoot2012-11-11d01t07.flac:b00ced69ed5e8961d0450b4f43d30cea
barefoot2012-11-11d01t08.flac:928881a534639a0bdbf29d7cb8e355d4
barefoot2012-11-11d01t09.flac:d4d97c844cd09635f6d216a4aa66c2cb
barefoot2012-11-11d01t10.flac:eb55435593d5329abde8404f30866e1f
barefoot2012-11-11d01t11.flac:0f1478fc6624f42faca299838601eb7a
barefoot2012-11-11d01t12.flac:8349241f730c643966a21a9660c49181
barefoot2012-11-11d01t13.flac:c0c92e21606503360641079c9e11bac7
barefoot2012-11-11d01t14.flac:f20063cc7614f09f564379b6beab99e7
barefoot2012-11-11d01t15.flac:da1779780b62c37984ef00b742b2327d
barefoot2012-11-11d02t01.flac:a9557d8715434f47abe3977fb3a7cf36
barefoot2012-11-11d02t02.flac:31e1e6d4386f6f3e8669e4a5a0e451a9
barefoot2012-11-11d02t03.flac:1b9ae2823dccaf2b4295fd0792c3823c
barefoot2012-11-11d02t04.flac:511abff11ab18c2541fe7058cdbd47b5
barefoot2012-11-11d02t05.flac:33eeff7bbbc2b3f6e041f2d82041af87
barefoot2012-11-11d02t06.flac:abdea394065e88b889ca5e7551bf2390
barefoot2012-11-11d02t07.flac:e70e6e42fef51e24a6ea2b167cca0d83
barefoot2012-11-11d02t08.flac:5c5a72c9f1d18359c89db8a62900eb0a
barefoot2012-11-11d02t09.flac:1667c65760ae9e89ebb1391fc199d8cd
barefoot2012-11-11d02t10.flac:91da34146c402197b4c894068ba0d9dd
barefoot2012-11-11d02t11.flac:91e9e17800066f58b3fff02f8e98e562
barefoot2012-11-11d02t12.flac:84fe62b9174d0f8adad103c0f2fd6cdb
barefoot2012-11-11d02t13.flac:f1b4fa67b1f0777bbee2fa1ba436959a
barefoot2012-11-11d02t14.flac:f1768f8ee1fe07b37f3deb11be0d97a1
barefoot2012-11-11d02t15.flac:7cd89748e43bab9a47a66dc068dfe91d
barefoot2012-11-11d02t16.flac:826d55f937abf168b45fb56d534483fd
barefoot2012-11-11d02t17.flac:ff06874c4e2962ef147ca0575d33adad
barefoot2012-11-11d02t18.flac:f48a2058448e18979111bd69b4371403
barefoot2012-11-11d02t19.flac:ef9ddbed1ac5de43ceda9b0cbc33fd32
barefoot2012-11-11d02t20.flac:092cd05513cb46212874825949e669de
barefoot2012-11-11d02t21.flac:1afd5e162088614fc042dd883211eb26
barefoot2012-11-11d02t22.flac:ff2cfd41858e0d22222a35e7b041b162

Shntool

length expanded size cdr WAVE problems fmt ratio filename
1:40.35 17722364 B --- -- ---xx flac 0.4479 barefoot2012-11-11d01t01.flac
10:00.13 105870620 B --- -- ---xx flac 0.4790 barefoot2012-11-11d01t02.flac
5:42.51 60448796 B --- -- ---xx flac 0.4736 barefoot2012-11-11d01t03.flac
5:13.56 55344956 B --- -- ---xx flac 0.4649 barefoot2012-11-11d01t04.flac
6:38.54 70334252 B --- -- ---xx flac 0.4900 barefoot2012-11-11d01t05.flac
5:10.26 54745196 B --- -- ---xx flac 0.4796 barefoot2012-11-11d01t06.flac
6:42.62 71058668 B --- -- ---xx flac 0.4758 barefoot2012-11-11d01t07.flac
1:41.38 17905820 B --- -- ---xx flac 0.3439 barefoot2012-11-11d01t08.flac
5:59.07 63344108 B --- -- ---xx flac 0.4437 barefoot2012-11-11d01t09.flac
5:40.09 59997212 B --- -- ---xx flac 0.4395 barefoot2012-11-11d01t10.flac
9:48.47 103833788 B --- -- ---xx flac 0.5129 barefoot2012-11-11d01t11.flac
1:43.10 18192764 B --- -- ---xx flac 0.3555 barefoot2012-11-11d01t12.flac
5:00.06 52934156 B --- -- ---xx flac 0.4671 barefoot2012-11-11d01t13.flac
1:58.46 20923436 B --- -- ---xx flac 0.3608 barefoot2012-11-11d01t14.flac
6:53.04 72862652 B --- -- ---xx flac 0.5007 barefoot2012-11-11d01t15.flac
1:55.47 20396588 B --- -- ---xx flac 0.3399 barefoot2012-11-11d02t01.flac
3:43.24 39393692 B --- -- ---xx flac 0.4814 barefoot2012-11-11d02t02.flac
1:56.10 20485964 B --- -- ---xx flac 0.3400 barefoot2012-11-11d02t03.flac
8:22.02 88557548 B --- -- ---xx flac 0.4879 barefoot2012-11-11d02t04.flac
4:19.23 45741740 B --- -- ---xx flac 0.5109 barefoot2012-11-11d02t05.flac
2:31.01 26638796 B --- -- ---xx flac 0.5560 barefoot2012-11-11d02t06.flac
1:36.33 17012060 B --- -- ---xx flac 0.3712 barefoot2012-11-11d02t07.flac
11:11.43 118465580 B --- -- ---xx flac 0.5088 barefoot2012-11-11d02t08.flac
1:13.22 12928988 B --- -- ---xx flac 0.3927 barefoot2012-11-11d02t09.flac
3:55.49 41569292 B --- -- ---xx flac 0.4484 barefoot2012-11-11d02t10.flac
6:18.37 66766268 B --- -- ---xx flac 0.5143 barefoot2012-11-11d02t11.flac
0:36.72 6519788 B --- -- ---xx flac 0.4575 barefoot2012-11-11d02t12.flac
1:09.00 12171644 B --- -- ---xx flac 0.5175 barefoot2012-11-11d02t13.flac
1:46.26 18759596 B --- -- ---xx flac 0.4752 barefoot2012-11-11d02t14.flac
1:11.71 12691436 B --- -- ---xx flac 0.4311 barefoot2012-11-11d02t15.flac
5:16.59 55881212 B --- -- ---xx flac 0.4725 barefoot2012-11-11d02t16.flac
1:23.06 14655356 B --- -- ---xx flac 0.3873 barefoot2012-11-11d02t17.flac
3:47.06 40056956 B --- -- ---xx flac 0.4861 barefoot2012-11-11d02t18.flac
3:55.29 41522252 B --- -- ---xx flac 0.5569 barefoot2012-11-11d02t19.flac
1:34.07 16598108 B --- -- ---xx flac 0.5756 barefoot2012-11-11d02t20.flac
6:02.61 64000316 B --- -- ---xx flac 0.5466 barefoot2012-11-11d02t21.flac
1:34.68 16741580 B --- -- ---xx flac 0.4146 barefoot2012-11-11d02t22.flac
155:14.35 1643073548 B 0.4780 (37 files)













Checksumsbarefoot2012-11-11d01t01.flac:4430823ede283a41c779254ce61e6e20
barefoot2012-11-11d01t02.flac:cde92e622b36d5574c158bb5e84c289c
barefoot2012-11-11d01t03.flac:6468c607682ca1aa0c4a351018c7d6e5
barefoot2012-11-11d01t04.flac:cd7d30b8bd37f45bdad602865b16bba0
barefoot2012-11-11d01t05.flac:7efc35ee6307d6a154b4bcea8e95b30c
barefoot2012-11-11d01t06.flac:505bd12bb8d51e59d49782207179cad1
barefoot2012-11-11d01t07.flac:b00ced69ed5e8961d0450b4f43d30cea
barefoot2012-11-11d01t08.flac:928881a534639a0bdbf29d7cb8e355d4
barefoot2012-11-11d01t09.flac:d4d97c844cd09635f6d216a4aa66c2cb
barefoot2012-11-11d01t10.flac:eb55435593d5329abde8404f30866e1f
barefoot2012-11-11d01t11.flac:0f1478fc6624f42faca299838601eb7a
barefoot2012-11-11d01t12.flac:8349241f730c643966a21a9660c49181
barefoot2012-11-11d01t13.flac:c0c92e21606503360641079c9e11bac7
barefoot2012-11-11d01t14.flac:f20063cc7614f09f564379b6beab99e7
barefoot2012-11-11d01t15.flac:da1779780b62c37984ef00b742b2327d
barefoot2012-11-11d02t01.flac:a9557d8715434f47abe3977fb3a7cf36
barefoot2012-11-11d02t02.flac:31e1e6d4386f6f3e8669e4a5a0e451a9
barefoot2012-11-11d02t03.flac:1b9ae2823dccaf2b4295fd0792c3823c
barefoot2012-11-11d02t04.flac:511abff11ab18c2541fe7058cdbd47b5
barefoot2012-11-11d02t05.flac:33eeff7bbbc2b3f6e041f2d82041af87
barefoot2012-11-11d02t06.flac:abdea394065e88b889ca5e7551bf2390
barefoot2012-11-11d02t07.flac:e70e6e42fef51e24a6ea2b167cca0d83
barefoot2012-11-11d02t08.flac:5c5a72c9f1d18359c89db8a62900eb0a
barefoot2012-11-11d02t09.flac:1667c65760ae9e89ebb1391fc199d8cd
barefoot2012-11-11d02t10.flac:91da34146c402197b4c894068ba0d9dd
barefoot2012-11-11d02t11.flac:91e9e17800066f58b3fff02f8e98e562
barefoot2012-11-11d02t12.flac:84fe62b9174d0f8adad103c0f2fd6cdb
barefoot2012-11-11d02t13.flac:f1b4fa67b1f0777bbee2fa1ba436959a
barefoot2012-11-11d02t14.flac:f1768f8ee1fe07b37f3deb11be0d97a1
barefoot2012-11-11d02t15.flac:7cd89748e43bab9a47a66dc068dfe91d
barefoot2012-11-11d02t16.flac:826d55f937abf168b45fb56d534483fd
barefoot2012-11-11d02t17.flac:ff06874c4e2962ef147ca0575d33adad
barefoot2012-11-11d02t18.flac:f48a2058448e18979111bd69b4371403
barefoot2012-11-11d02t19.flac:ef9ddbed1ac5de43ceda9b0cbc33fd32
barefoot2012-11-11d02t20.flac:092cd05513cb46212874825949e669de
barefoot2012-11-11d02t21.flac:1afd5e162088614fc042dd883211eb26
barefoot2012-11-11d02t22.flac:ff2cfd41858e0d22222a35e7b041b162
Visibleno (dead)
TypeOther
Last seederLast activity 94 days, 07:17:11 ago
Size749.00 MB (785388573 Bytes)
Added2012-11-12 02:26:34
Views0
Hits265
Snatched16 times
Upped byzmanatl
Num files
[See full list]
38 files
Peers
[See full list]
0 seeders, 0 leechers = 0 peers total

Add a comment

bigdaddybflo 2012-11-12 08:32:44
Barefoot Jerry and the CDB....

Add a comment


http://etree.org : http://db.etree.org : http://forums.etree.org : http://wiki.etree.org : Legal : RSS Feed

Contents designed & maintained by the etree.org volunteers
1998-2014, etree.org, except where noted. All Rights Reserved.
Read our terms of service and privacy guidelines