bt.etree.org
etree.org Community Bittorrent Tracker
ArtistPhil Lesh & Friends
ShowPhil Lesh and Friends - 11-07-2012 Wellmont Theatre.Montclair NJ- Senn e835's (McCue-Ford Analog-Digital source)-16bit
Report this as
non-Trade-Friendly
Email us
Torrentpaf2012-11-07.senn_e835.mccue.ford.122829.sbeok.flac16.torrent (click to download)
Downloads aspaf2012-11-07.senn_e835.mccue.ford.122829.sbeok.flac16
Info hash6bdb318c0bafa834bf8858545057fc1a3bb612ba
db linkhttp://db.etree.org/shn/122829 | Show | Source
DescriptionPhil Lesh and Friends
11/07/2012 - Wednesday
The Wellmont Theatre
Montclair, NJ

Source: MAC; Sennheiser e835's(pointed slightly inside the stacks) >
Sony D5 > Maxell XL II 90 (set I), TDK MA 100 (set II)

Directly behind SBD, slightly LOC. Mics approx. 7 ft. high, 11 ft. above floor level.

Transfer/Lineage: Master Audience Cassettes> Nakamichi Dragon> Lunatec V3(@ 24/88.2)>
Lynx AES 16> WaveLab 6.10> .wav @24/88.2> editing/mastering> r8brain PRO> .wav @ 16/44.1>
CD Wave Editor> TLH> flac16.

Patches: the first minute of Miss Half Step, the last 2 minutes of Golden Road and first 2 minutes of Eyes, 28 seconds of Fantasy and first 16 seconds of Other One. Patch source: by Freddy G's mg210's>psp3>PMD-620 (thanks Freddie G.),

Taped by Mark McCue
Transferred, edited and mastered by Alex Ford


Set I:

"Wake Of The Flood"

01. Mississippi Half-Step Uptown Toodeloo (10:06)
02. Let Me Sing Your Blues Away (6:11)
03. Row Jimmy (11:43)
04. Stella Blue (10:39)
05. Here Comes Sunshine > (9:45)
06. Eyes Of The World > (15:14)
07. Weather Report Suite (20:44)
- Prelude
- Part 1
- Part 2 (Let It Grow)

Set II:

01. Playing In The Band > (12:53)
02. Dear Mr. Fantasy > (11:16)
03. Unbroken Chain (16:12)
04. Help On The Way > (4:31)
05. Slipknot > (5:27)
06. The Golden Road To Unlimited Devotion (5:46)
07. The Other One > (15:42)
08. Slipknot > (1:04)
09. Franklin's Tower (8:52)
10. Donor Rap (2:02)
Encore:
11. China Doll > (8:35)
12. Playin' reprise (2:50)


Notes:

- SBE Free
- All editing and mastering with UAD-1 in 24/88.2
- Meta tagging with Tag&Rename



Shntool Output:

length expanded size cdr WAVE problems fmt ratio filename
10:06.34 106978412 B --- -- ----- wav 1.0000 paf2012-11-07-mccue-s1t01.wav
6:11.66 65599676 B --- -- ----- wav 1.0000 paf2012-11-07-mccue-s1t02.wav
11:43.57 124143308 B --- -- ----- wav 1.0000 paf2012-11-07-mccue-s1t03.wav
10:39.52 112841948 B --- -- ----- wav 1.0000 paf2012-11-07-mccue-s1t04.wav
9:45.25 103252844 B --- -- ----- wav 1.0000 paf2012-11-07-mccue-s1t05.wav
15:14.37 161316668 B --- -- ----- wav 1.0000 paf2012-11-07-mccue-s1t06.wav
20:44.25 219500444 B --- -- ----- wav 1.0000 paf2012-11-07-mccue-s1t07.wav
12:53.51 136477196 B --- -- ----- wav 1.0000 paf2012-11-07-mccue-s2t01.wav
11:16.31 119319356 B --- -- ----- wav 1.0000 paf2012-11-07-mccue-s2t02.wav
16:12.58 171597260 B --- -- ----- wav 1.0000 paf2012-11-07-mccue-s2t03.wav
4:31.15 47839724 B --- -- ----- wav 1.0000 paf2012-11-07-mccue-s2t04.wav
5:27.40 57776924 B --- -- ----- wav 1.0000 paf2012-11-07-mccue-s2t05.wav
5:46.28 61100300 B --- -- ----- wav 1.0000 paf2012-11-07-mccue-s2t06.wav
15:42.64 166319372 B --- -- ----- wav 1.0000 paf2012-11-07-mccue-s2t07.wav
1:04.30 11360204 B --- -- ----- wav 1.0000 paf2012-11-07-mccue-s2t08.wav
8:52.26 93905996 B --- -- ----- wav 1.0000 paf2012-11-07-mccue-s2t09.wav
2:02.55 21650204 B --- -- ----- wav 1.0000 paf2012-11-07-mccue-s2t10.wav
8:35.10 90869564 B --- -- ----- wav 1.0000 paf2012-11-07-mccue-s2t11.wav
2:50.27 30051548 B --- -- ----- wav 1.0000 paf2012-11-07-mccue-s2t12.wav
179:41.56 1901900948 B 1.0000 (19 files)
ChecksumsMD5:<br />
90bee978ffefb41f1eb2e36d8796f815 *paf2012-11-07-mccue-s1t01.flac<br />
5c568edf2a671cf218bbe0f216726a68 *paf2012-11-07-mccue-s1t02.flac<br />
510f82aea29bd47887b15b7ef27bab01 *paf2012-11-07-mccue-s1t03.flac<br />
2f730f49ba8f34247d81f2b64904a311 *paf2012-11-07-mccue-s1t04.flac<br />
7e4f3ff1708b94bd620672c39c85d6b4 *paf2012-11-07-mccue-s1t05.flac<br />
b2a960d6a2c2ec2858fa59a9f280ffb0 *paf2012-11-07-mccue-s1t06.flac<br />
9aa02c911b9157631c8fa8c590e39859 *paf2012-11-07-mccue-s1t07.flac<br />
dacd980013a2a532c9c3a75bd68e8879 *paf2012-11-07-mccue-s2t01.flac<br />
fb21b81013863eed6132f0316fa69734 *paf2012-11-07-mccue-s2t02.flac<br />
6d506113aa7b4b7a7de6ee7dc37b3a3b *paf2012-11-07-mccue-s2t03.flac<br />
7bb626e04ad55c8320efbf51963357cb *paf2012-11-07-mccue-s2t04.flac<br />
ac5588553abda280f6b08cbde5cea807 *paf2012-11-07-mccue-s2t05.flac<br />
37dc18d148764a80434c49e0d436ddc0 *paf2012-11-07-mccue-s2t06.flac<br />
1036b12f2aec0bdd1bc5fb91a5372d0f *paf2012-11-07-mccue-s2t07.flac<br />
f9cd5a61a03761ae6072d58ad19b78c4 *paf2012-11-07-mccue-s2t08.flac<br />
90d2946d71b6ccc6e13be71d27ba3c00 *paf2012-11-07-mccue-s2t09.flac<br />
40527c8bbf3772e21f47fc3700aa61f1 *paf2012-11-07-mccue-s2t10.flac<br />
7cdba747edb40ca122d58c623929dce2 *paf2012-11-07-mccue-s2t11.flac<br />
e09bf95fcdea7fcfd3ba1dcee1da92d9 *paf2012-11-07-mccue-s2t12.flac<br />
TypePhil Lesh & Friends
Last seederLast activity 1 day, 14:11:31 ago
Size928.93 MB (974050056 Bytes)
Added2012-11-12 15:42:45
Views4
Hits552
Snatched192 times
Upped by_MULETAPER
Num files
[See full list]
22 files
Peers
[See full list]
1 seeder, 0 leechers = 1 peer total

Add a comment

_MULETAPER 2012-11-12 15:46:54
Thanks To Mark for sharing another great Recording and Alex for the Patching and the Mixdown. GREAT job Fella's!

crank this up!
cdjones 2012-11-12 16:37:04
Thanks, fellas!

Albix 2012-11-12 17:29:50
WAKE Of The Flood, indeed!

Thanks for your help Matt!
zmanatl 2012-11-12 19:07:27
Hey Matt, what is with all the patches?
Albix 2012-11-12 19:43:22
Hey, nice job Mark!

2 tape flips + the D5 cut in and out twice, probably a loose wire.
rustystrings 2012-11-12 23:44:58
sounds real nice, especially the transition into eyes..sheesh, phil is just a musical monster
Tranastasio1 2012-11-13 08:59:09
Thanx for the "KIND" seed!
bigdaddybflo 2012-11-13 10:22:54
Sony D5 > Maxell XL II 90..... old skool. I still got my D-3 ,D-6, an D-5. Modern tech is so over rated... Thanks for the love.
_MULETAPER 2012-11-13 10:49:50
Hey Matt, what is with all the patches?

its called hippie taper art,anything of great structure in america has patches. fact! :-)

remember our first battle flag?
_MULETAPER 2012-11-13 10:51:16
>>>Modern tech is so over rated

as for alot of gear some folks run.
_MULETAPER 2012-11-13 10:53:18
@Tranastasio1

your welcome its got alot of life compared to other sources ive listened to.

great sound huh?
Albix 2012-11-13 15:02:07
Also on the Live Music Archive ~> http://archive.org/details/paf2012-11-07.senn_e835.mccue.ford.122829.sbeok.flac16
macdoogle 2012-11-13 20:27:09
hey, i got the fever!!!!!!!!!!!! are there 2 for the 1st night of portchester? thank you!
_MULETAPER 2012-11-14 08:52:04
Fever, your just a sick man with a horrible taping disease!

Doogs I've seen tix for sale. Ck phils board under tix.

if you go,you WILL get in.! never been shut out of a show but twice in my life.
Albix 2012-11-15 11:32:46
This is simply the best of 3 sources in circulation and all it takes to recognize that is a pair of ears. Why so few downloads? The taper's name and the value or name of the mics have very little to do with the quality of a recording. I will never understand this site.
bdbeeler 2012-11-15 15:51:58
Hear! Hear!

Add a comment


http://etree.org : http://db.etree.org : http://forums.etree.org : http://wiki.etree.org : Legal : RSS Feed

Contents designed & maintained by the etree.org volunteers
1998-2014, etree.org, except where noted. All Rights Reserved.
Read our terms of service and privacy guidelines