bt.etree.org
etree.org Community Bittorrent Tracker
ArtistJimmy Herring Band
Show Jimmy Herring Band 2012-10-20 Live Oak, FL **16 bit (FOB)Schoeps cmc6/mk4v**
Report this as
non-Trade-Friendly
Email us
Torrentjhb2012-10-20.schoeps.cafiero.ford.122853.sbeok.flac16.torrent (click to download)
Downloads asjhb2012-10-20.schoeps.cafiero.ford.122853.sbeok.flac16
Info hashd7c6cade8c017fb09a506a3cae6752e4bd2a264a
db linkhttp://db.etree.org/shn/122853 | Show | Source
DescriptionJimmy Herring Band
2012-10-20 (Saturday)
MagnoliaFest
Amphitheater Stage
Spirit Of The Suwannee Music Park
Live Oak, FL


Source: (FOB) Schoeps cmc6/mk4v(ORTF) > Tascam DR-680 (@24/44.1)

Mics 10 ft. high, FOB

Lineage: SD> .wav @24/44.1> WaveLab 6.10(editing/mastering)> r8Brain PRO>
.wav @16/44.1> CD Wave Editor> TLH> flac16.

Taped and transferred by Chris Cafiero.
Edited and mastered by Alex Ford.


01. Intro > Matt's Funk (6:55)
02. Aberdeen (7:45)
03. Duke And Cookie (7:15)
04. Emerald Garden (6:45)
05. Miss Poopie (8:44)
06. Rainbow (9:33)
07. Since I've Been Loving You (9:08)
08. Scapegoat Blues (7:36)
09. Heads Up (6:41)
Encore:
10. Band Introductions (0:31)
11. A Day In The Life (7:08)
12. Within You Without You (9:21)



Notes:

- 16 bit source, for CD burning.

- SBE Free, meta tagging with Tag&Rename.

- All editing and mastering with UAD-1 in 24/44.1



Shntool Output:

length expanded size cdr WAVE problems fmt ratio filename
6:55.64 73356572 B --- -- ----- wav 1.0000 jhb2012-10-20-cafiero-16bit-t01.wav
7:45.27 82089548 B --- -- ----- wav 1.0000 jhb2012-10-20-cafiero-16bit-t02.wav
7:15.46 76842236 B --- -- ----- wav 1.0000 jhb2012-10-20-cafiero-16bit-t03.wav
6:45.12 71470268 B --- -- ----- wav 1.0000 jhb2012-10-20-cafiero-16bit-t04.wav
8:44.43 92534780 B --- -- ----- wav 1.0000 jhb2012-10-20-cafiero-16bit-t05.wav
9:33.19 101121932 B --- -- ----- wav 1.0000 jhb2012-10-20-cafiero-16bit-t06.wav
9:08.66 96822476 B --- -- ----- wav 1.0000 jhb2012-10-20-cafiero-16bit-t07.wav
7:36.11 80464316 B --- -- ----- wav 1.0000 jhb2012-10-20-cafiero-16bit-t08.wav
6:41.33 70814060 B --- -- ----- wav 1.0000 jhb2012-10-20-cafiero-16bit-t09.wav
0:31.12 5496668 B --- -- ----- wav 1.0000 jhb2012-10-20-cafiero-16bit-t10.wav
7:08.44 75602732 B --- -- ----- wav 1.0000 jhb2012-10-20-cafiero-16bit-t11.wav
9:21.66 99115676 B --- -- ----- wav 1.0000 jhb2012-10-20-cafiero-16bit-t12.wav
87:27.68 925731264 B 1.0000 (12 files)
ChecksumsFFP:

jhb2012-10-20-cafiero-16bit-t01.flac:1ba0bb079033cf8ce0af25ba7d51ed8d
jhb2012-10-20-cafiero-16bit-t02.flac:0f72bda64f9167bac68988eb29b5ae5c
jhb2012-10-20-cafiero-16bit-t03.flac:d0b88353f25b5dde28e7accf67b0e1b0
jhb2012-10-20-cafiero-16bit-t04.flac:4ad9031fb3da92b7c58d9f4e10be636c
jhb2012-10-20-cafiero-16bit-t05.flac:3b940c29dfdd7f6d99b530d70e80b7ae
jhb2012-10-20-cafiero-16bit-t06.flac:0423a21677253ada861fa077a3aa77ec
jhb2012-10-20-cafiero-16bit-t07.flac:74984bf95519a7c900cd921c6bee6a24
jhb2012-10-20-cafiero-16bit-t08.flac:f3218f074d64423b470786fb4e96eafb
jhb2012-10-20-cafiero-16bit-t09.flac:edc4d476908f51d803af2feacdc78bf5
jhb2012-10-20-cafiero-16bit-t10.flac:76592d915b7058410d168351f895c36a
jhb2012-10-20-cafiero-16bit-t11.flac:5fd543494888087b0d134f6e832b407d
jhb2012-10-20-cafiero-16bit-t12.flac:b10b9a313a3d9bc593e281f341add73b

MD5:

8bf81d1d5d311706137f3607329c575a *jhb2012-10-20-cafiero-16bit-t01.flac
5d2670d8d287b5a13e3d7d9cad1aa005 *jhb2012-10-20-cafiero-16bit-t02.flac
2eaac39f16edffb58d3ca01d9a8d953a *jhb2012-10-20-cafiero-16bit-t03.flac
55017cccc3b5e1e94d6453a763d5b34d *jhb2012-10-20-cafiero-16bit-t04.flac
bb8983576ec80ff7a64d024ea5b75018 *jhb2012-10-20-cafiero-16bit-t05.flac
9193fb97d929116ede38c9975a27aae7 *jhb2012-10-20-cafiero-16bit-t06.flac
b91afc36e84f7666696448e1800d428f *jhb2012-10-20-cafiero-16bit-t07.flac
5ee91c1e85a828c8bbf9c0de873400c1 *jhb2012-10-20-cafiero-16bit-t08.flac
c074b6e77b163428c92597433f30469b *jhb2012-10-20-cafiero-16bit-t09.flac
12eea3c03e38a071e0caa799560734a4 *jhb2012-10-20-cafiero-16bit-t10.flac
30ee847056faa833b42da32c4bdad65b *jhb2012-10-20-cafiero-16bit-t11.flac
7e7895b0415c85a7af71bf1ff9707dde *jhb2012-10-20-cafiero-16bit-t12.flac
TypeJimmy Herring Band
Last seederLast activity 16:47 ago
Size467.01 MB (489693237 Bytes)
Added2012-11-13 21:58:14
Views3
Hits398
Snatched134 times
Upped byAlbix
Num files
[See full list]
15 files
Seeders
[Hide list]
1 Seeder(s)
ip:portclient
version
ul
bytes
dl
bytes
ratiocompleteul
rate
dl
rate
time
connected
time
left
idle
108.222.53.xxx:50207 μtorrent 3.0.0.0 0 B 0 B N/A 100.00%
N/A N/A 3 days, 14:50:07 N/A 16:47
0 of 1 firewalled (0%) 100.00%
N/AN/A
Leechers
[Hide list]
0 Leecher(s)

Add a comment

Albix 2012-11-13 22:16:50
24 bit version here ~ http://bt.etree.org/details.php?id=560102
_MULETAPER 2012-11-14 08:45:57
I saw you notes in the 24 bit version.

THIS sounds FANTASTIC best fob schoeps source ive heard maybe..in years! Thanks!
Albix 2012-11-15 00:46:58
Please listen to MT. This is definitely NOT any old lackluster AUD. It just ROCKS!
Tomahawk Kid 2012-11-15 16:17:05
Thank you!
skevap 2012-11-22 21:35:55
This sounds absolutely awesome.

Thanks to all involved!

Add a comment


http://etree.org : http://db.etree.org : http://forums.etree.org : http://wiki.etree.org : Legal : RSS Feed

Contents designed & maintained by the etree.org volunteers
1998-2014, etree.org, except where noted. All Rights Reserved.
Read our terms of service and privacy guidelines