bt.etree.org
etree.org Community Bittorrent Tracker
ArtistJimmy Herring Band
ShowJimmy Herring Band Wilbur Theatre Boston, Massachusetts 11/14/2012 (Schoeps CCM4V'S FOB)
Report this as
non-Trade-Friendly
Email us
Torrentjimmy2012-11-14.flac16.torrent (click to download)
Downloads asjimmy2012-11-14.flac16
Info hash3bf998bcf5b218affcf373166978820cca6060f6
db linkhttp://db.etree.org/shn/122858 | Show | Source
DescriptionJimmy Herring Band
Wilbur Theatre
Boston, Massachusetts
11/14/2012

Source: Schoeps CCM4V'S(din)>Lunatec V2>Benchmark AD2K>
Sound Devices 722 (24/48) Thanks Lynchie For The Clamp Space
FOB/DFC/KFC/ZFC/AARP 30' From Stage, 7' High
DSP: Sound Devices 722>Sound Forge 9.0>CD Wave>flac(16)
Recorded By: Z-Man
Seeded By: Z-Man

Disc I

01 Since I've Been Loving You
02 Matt's Funk
03 Aberdeen
04 Duke and Cookie
05 Miss Poopie
06 Emerald Garden

Disc II

01 Rainbow
02 Band Introductions
03 Heads Up
04 A Day In The Life >
05 Bilgewater Blues
06 Band Introductions
07 Within You Without You

Jimmy Herring - Guitar
Matt Slocum - Keyboards
Neal Fountain - Bass
Jeff Sipe - Drums

Flac Fingerprint

jimmy2012-11-14d01t01.flac:afddb1d19adf97a193fc0309bf6a07d4
jimmy2012-11-14d01t02.flac:fb1edcd30a140bcfe5c4f85ee5535d2a
jimmy2012-11-14d01t03.flac:3e31f7907ec7398096725da27ef906c4
jimmy2012-11-14d01t04.flac:2b31109179ca963f2808866cca1191dd
jimmy2012-11-14d01t05.flac:3b27821342a74abb041b2c136665195c
jimmy2012-11-14d01t06.flac:bb55ab2a2efff6c3bee273a7e2f33fab
jimmy2012-11-14d02t01.flac:b792075335694efaed375d9c0779faa3
jimmy2012-11-14d02t02.flac:17e667fc619215e700b4025e087b0c4b
jimmy2012-11-14d02t03.flac:1751979b365c8c97e1b630bd9f0988e0
jimmy2012-11-14d02t04.flac:921ca040d0d6ef40e0b665d70fbddf4a
jimmy2012-11-14d02t05.flac:fe54a5e05656a5bb8ee45ad70a37761c
jimmy2012-11-14d02t06.flac:ab11f841cc27e3be6b2d2879abc6ce6c
jimmy2012-11-14d02t07.flac:4e838a9db52e4994d65ac435eb7c2b0f

Shntool

length expanded size cdr WAVE problems fmt ratio filename
11:32.08 122087660 B --- -- ---xx flac 0.5225 jimmy2012-11-14d01t01.flac
6:04.73 64381340 B --- -- ---xx flac 0.5628 jimmy2012-11-14d01t02.flac
6:42.28 70978700 B --- -- ---xx flac 0.5116 jimmy2012-11-14d01t03.flac
6:44.74 71439692 B --- -- ---xx flac 0.5709 jimmy2012-11-14d01t04.flac
8:08.73 86254940 B --- -- ---xx flac 0.5744 jimmy2012-11-14d01t05.flac
6:33.58 69461660 B --- -- ---xx flac 0.5204 jimmy2012-11-14d01t06.flac
11:40.57 123614108 B --- -- ---xx flac 0.4703 jimmy2012-11-14d02t01.flac
0:37.16 6564476 B --- -- ---xx flac 0.4631 jimmy2012-11-14d02t02.flac
5:45.55 60987404 B --- -- ---xx flac 0.5485 jimmy2012-11-14d02t03.flac
8:01.47 84958988 B --- -- ---xx flac 0.5747 jimmy2012-11-14d02t04.flac
4:45.27 50337548 B --- -- ---xx flac 0.5781 jimmy2012-11-14d02t05.flac
0:33.10 5844764 B --- -- ---xx flac 0.4328 jimmy2012-11-14d02t06.flac
12:27.16 131808476 B --- -- ---xx flac 0.5039 jimmy2012-11-14d02t07.flac
89:38.17 948719756 B 0.5316 (13 files)










Checksumsjimmy2012-11-14d01t01.flac:afddb1d19adf97a193fc0309bf6a07d4<br />
jimmy2012-11-14d01t02.flac:fb1edcd30a140bcfe5c4f85ee5535d2a<br />
jimmy2012-11-14d01t03.flac:3e31f7907ec7398096725da27ef906c4<br />
jimmy2012-11-14d01t04.flac:2b31109179ca963f2808866cca1191dd<br />
jimmy2012-11-14d01t05.flac:3b27821342a74abb041b2c136665195c<br />
jimmy2012-11-14d01t06.flac:bb55ab2a2efff6c3bee273a7e2f33fab<br />
jimmy2012-11-14d02t01.flac:b792075335694efaed375d9c0779faa3<br />
jimmy2012-11-14d02t02.flac:17e667fc619215e700b4025e087b0c4b<br />
jimmy2012-11-14d02t03.flac:1751979b365c8c97e1b630bd9f0988e0<br />
jimmy2012-11-14d02t04.flac:921ca040d0d6ef40e0b665d70fbddf4a<br />
jimmy2012-11-14d02t05.flac:fe54a5e05656a5bb8ee45ad70a37761c<br />
jimmy2012-11-14d02t06.flac:ab11f841cc27e3be6b2d2879abc6ce6c<br />
jimmy2012-11-14d02t07.flac:4e838a9db52e4994d65ac435eb7c2b0f
TypeJimmy Herring Band
Last seederLast activity 3 days, 04:51:23 ago
Size480.96 MB (504323790 Bytes)
Added2012-11-15 02:55:20
Views0
Hits483
Snatched269 times
Upped byzmanatl
Num files
[See full list]
14 files
Seeders
[Hide list]
0 Seeder(s)
Leechers
[Hide list]
0 Leecher(s)

Add a comment

zmanatl 2012-11-15 02:57:18
Just threw this up in a hurry. Sounds very good, first time taping in Wilbur. I could not find my notes from last nigh, so the tracks are NOT listed. Have to be up and out early, so enjoy Show #161 of 2012!
ccole 2012-11-15 04:01:24
Thanks zman!
ccole 2012-11-15 05:18:31

Disc I

01 Since I've Been Loving You
02 Matt's Funk
03 Aberdeen
04 Duke and Cookie
05 Miss Poopie
06 Emerald Garden

Disc II

01 Rainbow
02 Band Introductions
03 Heads Up
04 A Day In The Life >
05 Bilgewater Blues
06 Band Introductions
07 Within You Without You
LAStubbe 2012-11-15 06:42:27
How was parking?
Tom_of_Mule 2012-11-15 08:32:14
Thanks Z !
Tom
BostonDPA4023 2012-11-15 09:48:16
Good time last night Z, have fun in Port Chestahhh.
BostonDPA4023 2012-11-15 09:48:34
Good time last night Z, have fun in Port Chestahhh.
bigdaddybflo 2012-11-15 10:22:51
GO Z GO !! Cant wait to see them Sat nite in Buffalo. Thanks for the love.
bigdaddybflo 2012-11-15 10:23:19
What was for dinner ????
gbcrofton 2012-11-15 10:51:52
zman did you get the wooten? anyone?
BostonDPA4023 2012-11-15 11:25:14
Victor got taped.
zmanatl 2012-11-15 13:32:40
All 4 of us taped Victor. Not allowed to upload. Took the train, shock stops running 12:20ish. Out of Wilbur at 12, so not time to hit china town. Epicurean Fest was a variety off the 7-11 roller grill. Still paying for it if you know what I am s(pr)aying! Always great to hang with Lynchie, Kenny, and Smokin' Joe!
Tomahawk Kid 2012-11-15 16:20:15
Thank you very much!
csmiller 2012-11-15 21:14:01
Awesome recording! Thanks!
scootertrash 2012-11-15 22:58:26
Was hoping you got your' tired old overworked butt over there.
Good job Pops!
Team AARP!!
diskobean 2012-11-15 23:00:16
What took you so long buddy ? ;D
tapejunkie 2012-11-16 06:55:19
Thanks Z

Add a comment


http://etree.org : http://db.etree.org : http://forums.etree.org : http://wiki.etree.org : Legal : RSS Feed

Contents designed & maintained by the etree.org volunteers
1998-2014, etree.org, except where noted. All Rights Reserved.
Read our terms of service and privacy guidelines