bt.etree.org
etree.org Community Bittorrent Tracker
ArtistPhil Lesh & Friends
ShowPhil Lesh & Friends Capitol Theatre Port Chester, New York 11/16/2012 (Schoeps CCM4V'S)
Report this as
non-Trade-Friendly
Email us
Torrentphil2012-11-16.flac16.torrent (click to download)
Downloads asphil2012-11-16.flac16
Info hash8e1441b8ab634581bc6131aadf285b2e74eea578
db linkhttp://db.etree.org/shn/122879 | Show | Source
DescriptionPhil Lesh And Friends
Capitol Theatre
Port Chester, New York
11/16/2012

Source: Schoeps CCM4V'S(din)>Lunatec V2>Benchmark AD2K>
Sound Devices 722 (24/48)
BOB/OTS/DFC/KFC/ZFC/AARP 50' From Stage, 6' High
DSP: Sound Devices 722>Sound Forge 9.0>CD Wave>flac(16)
Recorded By: Z-Man
Seeded By: Z-Man

Disc I 1st Set

01 Tuning
02 Let The Good Times Roll >
03 Loose Lucy
04 Peggy-O
05 Brown-Eyed Women
06 Good Mornin; Little Schoolgirl >
07 Bertha
08 Cosmic Charlie

Disc II 2nd Set

01 Tuning
02 Not Fade Away >
03 Early Morning Rain >
04 Cumberland Blues >
05 Hard Rain's A Gonna Fall >
06 The Wheel >
07 Stella Blue

Disc III 2nd Set Con't

01 China-Cat Sunflower >
02 I Know You Rider
Encore:
03 Phil Donor Rap
04 Goin' Down The Road Feelin' Bad

Phil Lesh - Bass And Vocals
Jackie Greene - Guitar, Keyboards, And Vocals
Adam MacDougall - Keyboards And Vocals
John Kadlecik - Guitar And Vocals
Joe Russo - Drums

Flac Fingerprint

phil2012-11-16d01t01.flac:37fd930a4b3d1a1b11a5729b77f13c2a
phil2012-11-16d01t02.flac:6c40d77984f197fce40991939573902d
phil2012-11-16d01t03.flac:1747e56a079bb3371c35e7f6155f6181
phil2012-11-16d01t04.flac:bbd6b06eb7c44d84aa35c5e076a09eab
phil2012-11-16d01t05.flac:e3280bae0fcf7276b475d92cd78462ee
phil2012-11-16d01t06.flac:acff4349973c509085cba339b1bc4cba
phil2012-11-16d01t07.flac:2de349d4736cf6602b6e5c000e950489
phil2012-11-16d01t08.flac:f40afd38a529d93a48891699a8f39ddd
phil2012-11-16d02t01.flac:0175a05a01088baa6497683ce5f56fad
phil2012-11-16d02t02.flac:4a26e7623c644f9f7c297977c1982772
phil2012-11-16d02t03.flac:a3ea454538c4df0ff5c306169b39f5f3
phil2012-11-16d02t04.flac:6d90f0d7b502edb20c943fcaee05144e
phil2012-11-16d02t05.flac:b7c4e545b39f6655b4f468ba2a4bbf3e
phil2012-11-16d02t07.flac:8de29ead4e377b76610c143ea1e9656c
phil2012-11-16d02t08.flac:fa865dcf8314e1d056c814672ff010b8
phil2012-11-16d03t01.flac:9aaf7fd9cddeb2f1ed84f11affa77ef3
phil2012-11-16d03t02.flac:cbd82092121f383e3a68f6aee0c143a8
phil2012-11-16d03t03.flac:94aa0714428092d25f34dc2222dbea54
phil2012-11-16d03t04.flac:5f562b3995cfdbe261063a0910e6c801

Shntool

length expanded size cdr WAVE problems fmt ratio filename
1:39.55 17593004 B --- -- ---xx flac 0.4219 phil2012-11-16d01t01.flac
9:11.42 97295228 B --- -- ---xx flac 0.5335 phil2012-11-16d01t02.flac
8:58.16 94940876 B --- -- ---xx flac 0.5316 phil2012-11-16d01t03.flac
9:27.28 100084700 B --- -- ---xx flac 0.4833 phil2012-11-16d01t04.flac
6:37.37 70117868 B --- -- ---xx flac 0.5348 phil2012-11-16d01t05.flac
4:39.45 49321484 B --- -- ---xx flac 0.5309 phil2012-11-16d01t06.flac
9:21.33 99038060 B --- -- ---xx flac 0.5254 phil2012-11-16d01t07.flac
10:59.23 116301740 B --- -- ---xx flac 0.4908 phil2012-11-16d01t08.flac
0:28.52 5061548 B --- -- ---xx flac 0.4388 phil2012-11-16d02t01.flac
9:02.01 95611196 B --- -- ---xx flac 0.5372 phil2012-11-16d02t02.flac
7:28.20 79074284 B --- -- ---xx flac 0.5173 phil2012-11-16d02t03.flac
16:09.21 170981036 B --- -- ---xx flac 0.5231 phil2012-11-16d02t04.flac
10:34.24 111894092 B --- -- ---xx flac 0.5734 phil2012-11-16d02t05.flac
18:00.22 190563788 B --- -- ---xx flac 0.5115 phil2012-11-16d02t07.flac
10:04.29 106613852 B --- -- ---xx flac 0.4679 phil2012-11-16d02t08.flac
5:53.56 62400956 B --- -- ---xx flac 0.5361 phil2012-11-16d03t01.flac
9:13.41 97645676 B --- -- ---xx flac 0.5545 phil2012-11-16d03t02.flac
1:46.50 18816044 B --- -- ---xx flac 0.4469 phil2012-11-16d03t03.flac
10:39.25 112778444 B --- -- ---xx flac 0.5406 phil2012-11-16d03t04.flac
160:15.20 1696133876 B 0.5208 (19 files)








Checksumsphil2012-11-16d01t01.flac:37fd930a4b3d1a1b11a5729b77f13c2a
phil2012-11-16d01t02.flac:6c40d77984f197fce40991939573902d
phil2012-11-16d01t03.flac:1747e56a079bb3371c35e7f6155f6181
phil2012-11-16d01t04.flac:bbd6b06eb7c44d84aa35c5e076a09eab
phil2012-11-16d01t05.flac:e3280bae0fcf7276b475d92cd78462ee
phil2012-11-16d01t06.flac:acff4349973c509085cba339b1bc4cba
phil2012-11-16d01t07.flac:2de349d4736cf6602b6e5c000e950489
phil2012-11-16d01t08.flac:f40afd38a529d93a48891699a8f39ddd
phil2012-11-16d02t01.flac:0175a05a01088baa6497683ce5f56fad
phil2012-11-16d02t02.flac:4a26e7623c644f9f7c297977c1982772
phil2012-11-16d02t03.flac:a3ea454538c4df0ff5c306169b39f5f3
phil2012-11-16d02t04.flac:6d90f0d7b502edb20c943fcaee05144e
phil2012-11-16d02t05.flac:b7c4e545b39f6655b4f468ba2a4bbf3e
phil2012-11-16d02t07.flac:8de29ead4e377b76610c143ea1e9656c
phil2012-11-16d02t08.flac:fa865dcf8314e1d056c814672ff010b8
phil2012-11-16d03t01.flac:9aaf7fd9cddeb2f1ed84f11affa77ef3
phil2012-11-16d03t02.flac:cbd82092121f383e3a68f6aee0c143a8
phil2012-11-16d03t03.flac:94aa0714428092d25f34dc2222dbea54
phil2012-11-16d03t04.flac:5f562b3995cfdbe261063a0910e6c801
TypePhil Lesh & Friends
Last seederLast activity 4:33 ago
Size842.47 MB (883388795 Bytes)
Added2012-11-17 02:33:40
Views0
Hits1013
Snatched633 times
Upped byzmanatl
Num files
[See full list]
20 files
Seeders
[Hide list]
1 Seeder(s)
ip:portclient
version
ul
bytes
dl
bytes
ratiocompleteul
rate
dl
rate
time
connected
time
left
idle
32.210.158.xxx:10801 μtorrent 1.8.4.0 0 B 0 B N/A 100.00%
N/A N/A 3 days, 21:31:33 N/A 4:33
0 of 1 firewalled (0%) 100.00%
N/AN/A
Leechers
[Hide list]
0 Leecher(s)

Add a comment

LAStubbe 2012-11-17 02:46:40
Fast!
LAStubbe 2012-11-17 02:47:56
I got a china>rider too tonight.
zmanatl 2012-11-17 02:48:43
I do not see your torrent Lenny.
williewonka 2012-11-17 02:56:39
Thanks
williewonka 2012-11-17 02:56:39
Thanks
williewonka 2012-11-17 02:57:00
....and THANKS!
spunterrapin 2012-11-17 02:59:11
Thanks for the quick up!
zmanatl 2012-11-17 03:05:32
Night II was another fun show!

China-Cat Sunflower >
I Know you Rider:
http://youtu.be/zpYxGyNxwsA
1478 2012-11-17 05:31:55
SUPER fast upload, THANK YOU....!

thank you

thank you &...

thank you..............!

BIG SMILE
indydarkstar 2012-11-17 06:15:41
thanks z
tgakidis 2012-11-17 06:31:27
Nice Job!
tapejunkie 2012-11-17 07:02:45
Thanks Z see you tonight
dskglf 2012-11-17 08:14:54
Great!
Thank you
gratefuldave78 2012-11-17 10:00:28
how was hubba-hubba?
zmanatl 2012-11-17 10:32:27
We ended up changing our plan. I was not a good boy, thanks to John's bad influence. We hit the Post Road Diner and did it right! Large Cuban sandwich. What they do there is use Marinated Pork Pieces instead of Sliced Pork. Then Ham, Grilled Onions, and Swiss Cheese. Oh, can't forget we each had a Large French Fries with Gray AND Cheese. Not the best thing to put in your stomach at 2:00 in the morning!

Tonight we are hitting Rodesio down the street from the Capitol. Open till 4:00 am How much can we put away from 12:30 - ?

bigdaddybflo 2012-11-17 10:55:57
hubba-hubba GO Z GO You hubba child ! I had a tix an ride an couldnt make it cuz i got too drunk watching the Bills squeek by the Dolphins. Thanks for the love.

Add a comment


http://etree.org : http://db.etree.org : http://forums.etree.org : http://wiki.etree.org : Legal : RSS Feed

Contents designed & maintained by the etree.org volunteers
1998-2014, etree.org, except where noted. All Rights Reserved.
Read our terms of service and privacy guidelines