bt.etree.org
etree.org Community Bittorrent Tracker
ArtistGrateful Dead
Showgd84-10-20.122859.mtx.dusborne.flac16
Report this as
non-Trade-Friendly
Email us
Torrentgd84-10-20.122859.mtx.dusborne.flac16.torrent (click to download)
Downloads asgd84-10-20.122859.mtx.dusborne.flac16
Info hash1b63ace6e292d65a1246f67eccec405bf11b666d
db linkhttp://db.etree.org/shn/122859 | Show | Source
DescriptionGrateful Dead
October 20, 1984
Carrier Dome
Syracuse, NY

2 source matrix

Soundboard (shnid:105445)
-------------------------------------------------------------------------------
gd1984-10-20.sbd.miller.105445.flac16

Recording Info:
SBD -> Cassette Master -> Dat -> CD

Transfer Info:
CD -> Adobe Audition v1.5 -> Samplitude Professional v10.22 -> FLAC
(3 Discs Audio / 2 Discs FLAC)

All Transfers and Mastering By Charlie Miller
charliemiller87@earthlink.net
January 12, 2010

Patch Info:
(FOB) Nakamichi 300/CP4 -> Cassette Master -> CD (shnid=33341) supplies:
West L.A. Fadeaway (4:10 - 4:14)

Notes:
-- Set 2 is seamless
-- Encore is from a different source
-- This is a re-master of shnid=15673
-- Some horrible processing was done to this before I got it
-- Thanks to Joe B. Jones for his help with the pitch correction


Audience (shnid:110063)
-----------------------------------------------------------------------------------------
gd1984-10-20.110063.beyer-senn-daweez.D5scott.flac16

Recorded by The Weasel - "Da Weez"
Transferred and mastered to .wav files by D5scott
source: 2 Beyer M160 & 1 Sennheiser 421 microphones > Nak MX100 w/2001 > Sony TC-D5M (Dolby on)
- analog master cassettes

transfer: Sony TC-D5M (original record deck - Dolby on) > Pre Sonus Inspire GT >
Sound Forge > .wav files > Trader's Little Helper > flac and ffp files

R.I.P. Sandy - aka "Bigfoot" He was a friend of mine and "Da Weez" who had nothing to do
with this recording, but we all sure do miss him!
--------------------------------------------------------------------------------------

---Thank you Charlie Miller for providing and your work on the SBD.
---Thank you Joe B. Jones for pitch correcting the SBD.
---Thank you "Da Weez" for recording the show.
---Thank you D5scott for providing and your work on the AUD.
---Thanks to germain for everything;seeding,encouragement,advice and tutelage.

Matrix by dusborne using Adobe Audition CS6 and Audacity 2.0

11-14-2012
----------------------------------------------------------------------------------------

Set 1

gd84-10-20s1t01 - Tuning
gd84-10-20s1t02 - Bertha ->
gd84-10-20s1t03 - Greatest Story Ever Told
gd84-10-20s1t04 - West L.A. Fadeaway
gd84-10-20s1t05 - C C Rider
gd84-10-20s1t06 - Ramble On Rose
gd84-10-20s1t07 - My Brother Esau
gd84-10-20s1t08 - Bird Song
gd84-10-20s1t09 - Jack Straw

Set 2

gd84-10-20s2t01 - Tuning
gd84-10-20s2t02 - Shakedown Street ->
gd84-10-20s2t03 - Samson And Delilah
gd84-10-20s2t04 - He's Gone ->
gd84-10-20s2t05 - Smokestack Lightnin' ->
gd84-10-20s2t06 - Drums ->
gd84-10-20s2t07 - Space ->
gd84-10-20s2t08 - The Wheel ->
gd84-10-20s2t09 - The Other One ->
gd84-10-20s2t10 - Black Peter ->
gd84-10-20s2t11 - Turn On Your Lovelight

Encore

gd84-10-20s2t12 - Revolution
-----------------------------------------------------------------------------------------

Tagging notes:
Show information is embedded within the header of each flac file.
It will display on any player capable of directly playing flac
files. If converted to wav during processing, all tags will be
stripped, however audio data will remain unaffected. If you must
transcode to a lossy format, do so directly Flac > Lossy.
Use ffp to validate audio integrity.
Md5 values will change if tagging is altered.

dusborne 11-14-2012
-----------------------------------------------------------------------------------------

length expanded size cdr WAVE problems fmt ratio filename
0:33.56 5952956 B --- -- ---xx flac 0.5627 gd84-10-20s1t01.flac
6:10.19 65312732 B --- -- ---xx flac 0.6562 gd84-10-20s1t02.flac
6:13.55 65926604 B --- -- ---xx flac 0.6087 gd84-10-20s1t03.flac
8:52.12 93873068 B --- -- ---xx flac 0.6370 gd84-10-20s1t04.flac
8:52.57 93978908 B --- -- ---xx flac 0.6429 gd84-10-20s1t05.flac
10:35.26 112075196 B --- -- ---xx flac 0.6171 gd84-10-20s1t06.flac
4:37.27 48926348 B --- -- ---xx flac 0.6427 gd84-10-20s1t07.flac
11:19.16 119813276 B --- -- ---xx flac 0.6564 gd84-10-20s1t08.flac
7:39.49 81082892 B --- -- ---xx flac 0.6767 gd84-10-20s1t09.flac
0:47.00 8290844 B --- -- ---xx flac 0.5579 gd84-10-20s2t01.flac
13:47.00 145882844 B --- -- ---xx flac 0.6998 gd84-10-20s2t02.flac
9:28.00 100195244 B --- -- ---xx flac 0.6707 gd84-10-20s2t03.flac
11:03.00 116953244 B --- -- ---xx flac 0.6653 gd84-10-20s2t04.flac
7:50.70 83072684 B --- -- ---xx flac 0.6605 gd84-10-20s2t05.flac
7:32.35 79815164 B --- -- ---xx flac 0.5957 gd84-10-20s2t06.flac
6:48.01 71973596 B --- -- ---xx flac 0.5945 gd84-10-20s2t07.flac
4:52.07 51525308 B --- -- ---xx flac 0.6697 gd84-10-20s2t08.flac
6:42.48 71025740 B --- -- ---xx flac 0.6697 gd84-10-20s2t09.flac
8:56.45 94656284 B --- -- ---xx flac 0.6521 gd84-10-20s2t10.flac
9:12.19 97417532 B --- -- ---xx flac 0.6575 gd84-10-20s2t11.flac
6:44.26 71326796 B --- -- ---xx flac 0.6563 gd84-10-20s2t12.flac
158:38.43 1679077260 B 0.6505 (21 files)
Checksumsgd84-10-20s1t01.flac:c53d03a446760b397662ee738a5790f9
gd84-10-20s1t02.flac:1e10de01657ebf06efe8e78f34ceb4fb
gd84-10-20s1t03.flac:5442ccca0a0385640557db7075b03def
gd84-10-20s1t04.flac:63d1dc2e7beec329a8f77df9ec8acbaf
gd84-10-20s1t05.flac:2302ac332919efc124af6f570fc42293
gd84-10-20s1t06.flac:58ef0e20c1269b69f38652cc777a0f6a
gd84-10-20s1t07.flac:4eeef732103a05e209a16f41cbf08d39
gd84-10-20s1t08.flac:9cc6f5c434e50f6c97d31aa3f2c4114d
gd84-10-20s1t09.flac:692ba276cb7a33a9bec1a077985597f6
gd84-10-20s2t01.flac:10dc143b09cf01d7e2c4bad92a5810ee
gd84-10-20s2t02.flac:a3a1ab179c4d7b19e7b21eaecd91240d
gd84-10-20s2t03.flac:debaf16cf152824261f47be63b3a3974
gd84-10-20s2t04.flac:b246f253fcaa7221809621b87152fcf2
gd84-10-20s2t05.flac:b366ae68bb1a0d2a81474504d3fd1112
gd84-10-20s2t06.flac:c2acf73ad4de5d487943ed294dc14d58
gd84-10-20s2t07.flac:2f2c77b8aa2a6f3148ce46ab2cddf524
gd84-10-20s2t08.flac:5ad60606b9ed155a3e59d981fc7be310
gd84-10-20s2t09.flac:972e1b3b4f5cb6c895270b8cc64287d5
gd84-10-20s2t10.flac:9e7c100e59263c10913ae6dc9f00b7bc
gd84-10-20s2t11.flac:478bbd009f089130aed0530403dbe4e8
gd84-10-20s2t12.flac:33b9023d6341519227a6f8c94412cb9b
TypeGrateful Dead
Last seederLast activity 31:23 ago
Size1.018 GB (1092861944 Bytes)
Added2012-11-17 07:44:35
Views0
Hits729
Snatched440 times
Upped bygermain
Num files
[See full list]
29 files
Seeders
[Hide list]
5 Seeder(s)
ip:portclient
version
ul
bytes
dl
bytes
ratiocompleteul
rate
dl
rate
time
connected
time
left
idle
76.100.137.xxx:11908 μtorrent 3.4.2.0 976.87 MB 0 B 100.00%
0 B/s N/A 2 days, 16:52:06 N/A 19:31
108.50.181.xxx:50434 5.23 MB 0 B 100.00%
0 B/s N/A 3 days, 15:49:26 N/A 27:16
162.197.121.xxx:6881 1.68 MB 0 B 100.00%
0 B/s N/A 11 days, 03:15:53 N/A 31:23
174.56.38.xxx:53846 μtorrent 3.4.2.0 0 B 0 B N/A 100.00%
N/A N/A 7:03:18 N/A 33:05
98.149.251.xxx:10593 μtorrent 2.2.0.0 0 B 0 B N/A 100.00%
N/A N/A 3 days, 01:47:38 N/A 15:54
0 of 5 firewalled (0%) 100.00%
N/AN/A
Leechers
[Hide list]
0 Leecher(s)

Add a comment

seremetcc 2012-11-17 08:41:52
I was hoping someone would do a Dome matrix. I haven't listened yet but does the "space" of the place come through?
kayatosh 2012-11-17 14:33:36
thank you. GDome
sprobeck 2012-11-17 14:59:53
Thanks!
eddie20850 2012-11-17 17:36:44
thx from an attendee, was so fun, air from dome deflation blowing us out the door after the show
eddie20850 2012-11-17 17:54:51
Sounds...AWEsome; and I think this was the 1st Smokestack since the R Mc era
ArchivalAudio 2012-11-17 22:02:02
Thank you for the matrix

I was at this show and have some funny memories of this one.
--ian
metawhy 2012-11-18 01:01:26
love the echo effect in shakedown!
tommie01 2012-11-18 07:39:32
Thanks to everyone who made this happen. Not everyone likes the mid 80's but I really like Fall '84, especially with all the great sounding audience recordings around. Can't wait to hear the matrix.
naturalfractal 2012-11-18 15:29:54
Lots of peeps call this show out for the Bird Song, Jack Straw, Shakedown and a few others but it's the Black Peter that deserves attention; it is top notch '84 Jerry. He really nailed those sad, dark tunes of his in this year ala Loser, Wharf Rat, and Black Peter. Thanks for this - more '84 matrices please!
rockymtnryan 2012-11-26 18:31:30
Thanks!
firemt66 2012-12-01 18:06:33
wow i remember like it was yesterday..6 of us in a small car driving from ct. big big place the sound was weird,the air pushing us out of the pace after the show was a trip.oh the trip was cool too.lol. THANKS FOR THIS
granitedive 2013-09-14 19:46:32
Thanks,
been listening to the cassette of this long enough!

Add a comment


http://etree.org : http://db.etree.org : http://forums.etree.org : http://wiki.etree.org : Legal : RSS Feed

Contents designed & maintained by the etree.org volunteers
1998-2014, etree.org, except where noted. All Rights Reserved.
Read our terms of service and privacy guidelines