bt.etree.org
etree.org Community Bittorrent Tracker
ArtistPhil Lesh & Friends
ShowPhil Lesh & Friends Capitol Theatre Port Chester, New York 11/17/2012 (Schoeps CCM4V'S)
Report this as
non-Trade-Friendly
Email us
Torrentphil2012-11-17.flac16.torrent (click to download)
Downloads asphil2012-11-17.flac16
Info hash6e0ef1d9d391ec18946d60590a5ec351d7903677
db linkhttp://db.etree.org/shn/123583 | Show | Source
DescriptionPhil Lesh And Friends
Capitol Theatre
Port Chester, New York
11/17/2012

Source: Schoeps CCM4V'S(din)>Lunatec V2>Benchmark AD2K>
Sound Devices 722 (24/48)
BOB/OTS/DFC/KFC/ZFC/AARP 50' From Stage, 6' High
DSP: Sound Devices 722>Sound Forge 9.0>CD Wave>flac(16)
Recorded By: Z-Man
Seeded By: Z-Man

Disc I 1st Set

01 Tuning
02 Alabama Getaway
03 Ramble On Rose
04 Friend Of The Devil
05 Candyman
06 After Midnight
07 Next Time You See Me
08 Don't Ease Me In

Disc II 2nd Set

01 Tuning
02 Aiko-Aiko
03 Shakedown Street >
04 Sugaree >
05 Bird Song >

Disc III 2nd Set Con't

01 Revolution >
02 All Along The Watchtower >
03 Lady With A Fan >
04 Terrapin Station >
05 Midnight Hour
Encore:
06 Phil Donor Rap
07 Ripple

Phil Lesh - Bass And Vocals
Jackie Greene - Guitar, Keyboards, And Vocals
Adam MacDougall - Keyboards And Vocals
John Kadlecik - Guitar And Vocals
Joe Russo - Drums

Flac Fingerprint

phil2012-11-17d01t01.flac:3d5620a5b40dfe897b668ac05920e314
phil2012-11-17d01t02.flac:77dd85c34d9a29abec94a3882d954bb6
phil2012-11-17d01t03.flac:81f69ec5ffac752438d9417572878261
phil2012-11-17d01t04.flac:60a77645228443143f825de20ba65b91
phil2012-11-17d01t05.flac:2c3a54d9fb8d17fde47c5735ccbe1671
phil2012-11-17d01t06.flac:a48415a9597c709def1b6f38c70d9a9c
phil2012-11-17d01t07.flac:ad340a517e11dff894ed993eee41d75d
phil2012-11-17d01t08.flac:34ae0d59b809c4cf9cd2d3421f0b506e
phil2012-11-17d02t01.flac:84100a339ee8c2c3a733c418022134ad
phil2012-11-17d02t02.flac:802c0c4deac483d10c02f5cf17538a12
phil2012-11-17d02t03.flac:453e213c081ec9d9a2b992ef01a2391c
phil2012-11-17d02t04.flac:cf43769a4d312f536c3a1040037c5717
phil2012-11-17d02t05.flac:627396aa8d718125bcd130fcfb6ab329
phil2012-11-17d03t01.flac:89c28fafcec8071ea63e70bd6f1d8508
phil2012-11-17d03t02.flac:dd450820a034c3937859f8d08eab56eb
phil2012-11-17d03t03.flac:f7b65ceebc1b32dc61a50e5f8b6ef7f9
phil2012-11-17d03t04.flac:83748c95e47072dcbcb2bb5de86f0828
phil2012-11-17d03t05.flac:165f84dca4623520980461dd75651006
phil2012-11-17d03t06.flac:cab15486444dd1a4edbbeda9af800e03
phil2012-11-17d03t07.flac:f79ae47fbbcc4a545fda47ec669c1565

Shntool

length expanded size cdr WAVE problems fmt ratio filename
1:05.38 11555420 B --- -- ---xx flac 0.4170 phil2012-11-17d01t01.flac
8:27.21 89484236 B --- -- ---xx flac 0.5517 phil2012-11-17d01t02.flac
8:06.67 85888028 B --- -- ---xx flac 0.5043 phil2012-11-17d01t03.flac
9:35.51 101549996 B --- -- ---xx flac 0.5213 phil2012-11-17d01t04.flac
7:36.57 80572508 B --- -- ---xx flac 0.4822 phil2012-11-17d01t05.flac
10:20.20 109415084 B --- -- ---xx flac 0.5232 phil2012-11-17d01t06.flac
6:54.21 73079036 B --- -- ---xx flac 0.5145 phil2012-11-17d01t07.flac
10:15.52 108608348 B --- -- ---xx flac 0.5151 phil2012-11-17d01t08.flac
1:07.66 11974076 B --- -- ---xx flac 0.4160 phil2012-11-17d02t01.flac
9:29.68 100531580 B --- -- ---xx flac 0.5212 phil2012-11-17d02t02.flac
13:48.28 146125100 B --- -- ---xx flac 0.5408 phil2012-11-17d02t03.flac
12:53.57 136491308 B --- -- ---xx flac 0.5373 phil2012-11-17d02t04.flac
17:29.39 185135372 B --- -- ---xx flac 0.4871 phil2012-11-17d02t05.flac
6:21.30 67279004 B --- -- ---xx flac 0.5383 phil2012-11-17d03t01.flac
5:07.25 54213644 B --- -- ---xx flac 0.5494 phil2012-11-17d03t02.flac
11:39.13 123334220 B --- -- ---xx flac 0.4940 phil2012-11-17d03t03.flac
5:51.47 62026988 B --- -- ---xx flac 0.5462 phil2012-11-17d03t04.flac
4:56.38 52303820 B --- -- ---xx flac 0.5542 phil2012-11-17d03t05.flac
1:56.07 20478908 B --- -- ---xx flac 0.4443 phil2012-11-17d03t06.flac
5:23.67 57134828 B --- -- ---xx flac 0.4814 phil2012-11-17d03t07.flac
158:27.62 1677181504 B 0.5166 (20 files)














Checksumsphil2012-11-17d01t01.flac:3d5620a5b40dfe897b668ac05920e314<br />
phil2012-11-17d01t02.flac:77dd85c34d9a29abec94a3882d954bb6<br />
phil2012-11-17d01t03.flac:81f69ec5ffac752438d9417572878261<br />
phil2012-11-17d01t04.flac:60a77645228443143f825de20ba65b91<br />
phil2012-11-17d01t05.flac:2c3a54d9fb8d17fde47c5735ccbe1671<br />
phil2012-11-17d01t06.flac:a48415a9597c709def1b6f38c70d9a9c<br />
phil2012-11-17d01t07.flac:ad340a517e11dff894ed993eee41d75d<br />
phil2012-11-17d01t08.flac:34ae0d59b809c4cf9cd2d3421f0b506e<br />
phil2012-11-17d02t01.flac:84100a339ee8c2c3a733c418022134ad<br />
phil2012-11-17d02t02.flac:802c0c4deac483d10c02f5cf17538a12<br />
phil2012-11-17d02t03.flac:453e213c081ec9d9a2b992ef01a2391c<br />
phil2012-11-17d02t04.flac:cf43769a4d312f536c3a1040037c5717<br />
phil2012-11-17d02t05.flac:627396aa8d718125bcd130fcfb6ab329<br />
phil2012-11-17d03t01.flac:89c28fafcec8071ea63e70bd6f1d8508<br />
phil2012-11-17d03t02.flac:dd450820a034c3937859f8d08eab56eb<br />
phil2012-11-17d03t03.flac:f7b65ceebc1b32dc61a50e5f8b6ef7f9<br />
phil2012-11-17d03t04.flac:83748c95e47072dcbcb2bb5de86f0828<br />
phil2012-11-17d03t05.flac:165f84dca4623520980461dd75651006<br />
phil2012-11-17d03t06.flac:cab15486444dd1a4edbbeda9af800e03<br />
phil2012-11-17d03t07.flac:f79ae47fbbcc4a545fda47ec669c1565
TypePhil Lesh & Friends
Last seederLast activity 16:19:44 ago
Size826.27 MB (866408812 Bytes)
Added2012-11-18 03:59:12
Views0
Hits802
Snatched491 times
Upped byzmanatl
Num files
[See full list]
21 files
Seeders
[Hide list]
0 Seeder(s)
Leechers
[Hide list]
0 Leecher(s)

Add a comment

serodavid 2012-11-18 04:42:27
Thanks z-man for this and for the stream - much appreciated on a Sunday morning in England :)
philandjenny 2012-11-18 05:09:21
Many thanks for this and the other shows on this run zman.Always appreciated.
Cheers from Oz
Phil :>)
tommie01 2012-11-18 07:25:12
Truly something to be thankful for. Thanks Z-Man.
bigdaddybflo 2012-11-18 08:10:57
Z-manimal !! GO Z GO !!Thanks for the love.
taperchuck2 2012-11-18 10:31:08
Thanks zman for the quick uploads!! They sound great!!
tapejunkie 2012-11-18 12:19:58
Thanks Z
newpotat 2012-11-18 12:21:42
Thanks, Zman. Always appreciate your taping and posting.
brofan 2012-11-18 14:15:41
Thank you Z-man, too many times to count....
gratefuldave78 2012-11-18 18:46:10
wow! almost every song was a jerry song
gratefuldave78 2012-11-18 18:46:51
every song but 2 were jerry songs last night
tdwriter 2012-11-19 22:42:26
Thanks Steve! Looking forward to hearing this one.

MSTaper
dskglf 2012-11-21 16:16:36
Appreciate your efforts and quick turn-around!
Graet recordings!
garcialives 2012-11-26 11:28:36
Thanks, great to see the Capitol acitve again.
hucklive 2013-11-21 03:45:20
Many Thanks!

Add a comment


http://etree.org : http://db.etree.org : http://forums.etree.org : http://wiki.etree.org : Legal : RSS Feed

Contents designed & maintained by the etree.org volunteers
1998-2014, etree.org, except where noted. All Rights Reserved.
Read our terms of service and privacy guidelines