bt.etree.org
etree.org Community Bittorrent Tracker
ArtistGrateful Dead
Showgd72-10-21.122342.sbd-pset2.rbbert.dan-fix.flac16
Report this as
non-Trade-Friendly
Email us
Torrentgd72-10-21.122342.sbd-pset2.rbbert.dan-fix.flac16.torrent (click to download)
Downloads asgd72-10-21.122342.sbd-pset2.rbbert.dan-fix.flac16
Info hash085cdef52e1113ce5a1579678066855a3ea3f070
db linkhttp://db.etree.org/shn/122342 | Show | Source
DescriptionThis is a revision of shnid: 94453

Grateful Dead
October 21, 1972
Vanderbilt University
Nashville, TN


Revision by Dan McDonald, Sept-Oct, 2012.
Diamond Cut Forensics 8 was used to rearrange the audio. I used the spectral filter
for equalization in several different ways.The main goal was to lower the prominence of
the bass. Most of the bass was in the right channel, so that was just a reworking of
the sonic profile for the left channel. Sometimes, the bass was in both channels.
In those instances I either left it alone or lowered it (depending on what was going on
at the time). Along the way I boosted the highs considerably in both channels. You
should be able to hear quite a bit of difference. Booting highs lead to some increases
in noise. I decided not to use any noise reduction because the drums/cymbals were so
low that their signal was about equivalent to the noise level at some points. In this
version, you will notice the noise more between songs and when the songs are relatively
quiet, but you'll also be able to hear the drums, guitars and vocals more prominently.
I don't specify all the things I did because there were too many changes.

I left the space (tape cut or tape flip in the original) as it was in the source I used.
There's enough hiss that either the lineage is wrong or the signal was recorded at very
low levels in the original.


Original information
gd72-10-21.94453.sbd-pset2.rbbert.fix-94410.sbefail.flac16

Recording Info:
SBD -> Master Reel -> Dat -> CD
I attempted to improve the most annoying aspects of this recording
- Balanced the channels
- improved the volume fluctuations in Truckin'
- Lowered the bass slightly after about 3:44 in Truckin'
- cut out some "dead air"

Charlie Miller's Notes (shnid=94410):
-- Possibly from a Master Cassette
-- Didn't do much to this, just fixed levels and cleaned up cuts
-- This has a horrible mix but it's better than nothing
-- Tape flips in Greatest Story Ever Told and The Other One
___________________________________________________________________________________________

--Set 2--
204-d1t01 - He's Gone
205-d1t02 - Greatest Story Ever Told
206-d1t03 - Bird Song
207-d1t04 - Truckin' ->
208-d1t05 - The Other One ->
209-d1t06 - Morning Dew
___________________________________________________________________________________________

Tagging notes:
Show information is embedded within the header of each flac file.
It will display on any player capable of directly playing flac files.
If converted to wav during processing, all tags will be stripped,
however audio data will remain unaffected.
If you must transcode to a lossy format, do so directly Flac > Lossy.
Use st5 or ffp to validate audio integrity.
Md5 values will change if tagging is altered.
B. Proctor 10-11-12
___________________________________________________________________________________________

length expanded size cdr WAVE problems fmt ratio filename
13:42.61 145144316 B --- -- ---xx flac 0.5186 gd72-10-21.sbd.rbbert.dand01t01.flac
4:13.58 44765660 B --- -- ---xx flac 0.5262 gd72-10-21.sbd.rbbert.dand01t02.flac
12:01.41 127280876 B --- -- ---xx flac 0.4880 gd72-10-21.sbd.rbbert.dand01t03.flac
11:30.13 121746620 B --- -- ---xx flac 0.4789 gd72-10-21.sbd.rbbert.dand01t04.flac
18:13.23 192859340 B --- -- ---xx flac 0.4495 gd72-10-21.sbd.rbbert.dand01t06.flac
12:07.52 128365940 B -b- -- ---xx flac 0.4844 gd72-10-21.sbd.rbbert.dand01t07.flac
71:49.23 760162752 B 0.4842 (6 files)
Checksumsgd72-10-21.sbd.rbbert.dand01t01.flac:6e79b89fd0ba4be4e3e400c484652a41
gd72-10-21.sbd.rbbert.dand01t02.flac:6981295902d44ecfa839b1d4e521ecc7
gd72-10-21.sbd.rbbert.dand01t03.flac:6e53723e29e13bb1ad7393ec3276138f
gd72-10-21.sbd.rbbert.dand01t04.flac:3b3ef617219fdb1f305361f35ec2a9da
gd72-10-21.sbd.rbbert.dand01t06.flac:094b198a68bb023d338fe4c8cd8c94ef
gd72-10-21.sbd.rbbert.dand01t07.flac:de9efa14de92a8767a0cf71b8d8b225e
TypeGrateful Dead
Last seederLast activity 32:01 ago
Size351.04 MB (368096645 Bytes)
Added2012-11-18 07:54:48
Views0
Hits405
Snatched182 times
Upped bygermain
Num files10 files
File List
[Hide list]
filenamesizemd5
gd1972-10-21.sbd.rbbert.dan.txt3.6 kBN/A
gd72-10-21.sbd.rbbert.dan.ffp426 BN/A
gd72-10-21.sbd.rbbert.dand01t01.flac71.78 MBN/A
gd72-10-21.sbd.rbbert.dand01t02.flac22.46 MBN/A
gd72-10-21.sbd.rbbert.dand01t03.flac59.23 MBN/A
gd72-10-21.sbd.rbbert.dand01t04.flac55.60 MBN/A
gd72-10-21.sbd.rbbert.dand01t06.flac82.67 MBN/A
gd72-10-21.sbd.rbbert.dand01t07.flac59.29 MBN/A
gd72-10-21.xxxxxx.shntool_len.txt769 BN/A
gd72-10-21.xxxxxx.tagged.md5547 BN/A
Peers
[See full list]
3 seeders, 0 leechers = 3 peers total

Add a comment

germain 2012-11-18 07:57:45
This is a blistering partial second set. All the fall '72 goodness you could hope for. The original reel source has some serious issues. Primarily, Phil so completely overshadows all the other instruments it's a difficult listen. That source has been remastered by Charlie Miller then Charlie's work remastered by rbbert. A measure of improvement with each remaster, but still far from ideal.

Now droncit has worked his magic and Oh Boy!! you are in for a real treat. The sound has improved from marginal to almost excellent. Maybe for the first time since it was performed in Nashville 40 years ago, this show will steal your face.
cryptical17 2012-11-18 09:27:00
Was this the Dead's first gig in Nashville? I wonder if they planned on visiting the Grand Ol Opry when they were in town!
jerryschrier 2012-11-18 15:11:34
This sounds awesome. DL it and seed.
Pisces 2012-11-18 16:00:59
Thanks!
mandoando 2012-11-19 18:54:32
Many thanks for the work! This was my first show and what a day it was. For starters it was a free show and it seemed to go forever.

Unfortunately, they didn't visit the Opry.

http://s274.photobucket.com/albums/jj266/icepetal/Dead/Dead%201972-10-21/
philmatera 2014-04-16 01:12:15
Thanks!
TimeOnTarget 2014-07-09 23:50:58
Germain --

Boy, you hit the nail on the head. I especially like their fall of 72 stuff and I went to Vanderbilt, so I always listened to the older versions of this show and sighed and thought what might have been.

While I was listening to some Fall of 72 at work today (and naturally working my butt off the rest of the time . . . because the Grateful Dead just make me want to do paperwork . . . yeah right) I happened to hit this version on Archive, without even knowing that this new one had come out. Anyone watching me would have sworn I got caught by a giant fishhook the way my mouth dropped open.

I couldn't freaking believe it. Kind of like the source rehab of fantasies.

I'm lucky I don't have wireless headphones at work or I might have danced my way into getting canned on a mental.

Dan -- Beyond excellent man. It is unreal how good it turned out. Un-Freaking-Real. Amazing.

THANK YOU!



TimeOnTarget 2014-07-09 23:56:50
mandoando--

Thanks for the link to the pictures, man. those are excellent!

Add a comment


http://etree.org : http://db.etree.org : http://forums.etree.org : http://wiki.etree.org : Legal : RSS Feed

Contents designed & maintained by the etree.org volunteers
1998-2014, etree.org, except where noted. All Rights Reserved.
Read our terms of service and privacy guidelines