bt.etree.org
etree.org Community Bittorrent Tracker
ArtistPhil Lesh & Friends
ShowPhil Lesh & Friends Capitol Theatre Port Chester, New York 11/18/2012 (Schoeps CCM4V'S)
Report this as
non-Trade-Friendly
Email us
Torrentphil2012-11-18.flac16.torrent (click to download)
Downloads asphil2012-11-18.flac16
Info hash18a9df74405cb6fdcc2bf63c908da1d823e13162
db linkhttp://db.etree.org/shn/122920 | Show | Source
DescriptionPhil Lesh And Friends
Capitol Theatre
Port Chester, New York
11/18/2012

Source: Schoeps CCM4V'S(din)>Lunatec V2>Benchmark AD2K>
Sound Devices 722 (24/48)
BOB/OTS/DFC/KFC/ZFC/AARP 50' From Stage, 6' High
DSP: Sound Devices 722>Sound Forge 9.0>CD Wave>flac(16)
Recorded By: Z-Man
Seeded By: Z-Man

Disc I 1st Set

01 Tuning
02 Here Comes Sunshine >
03 Row Jimmy
04 Tom Thumb Blues
05 Built To Last
06 A Little Light
07 *#Brown Sugar
08 *#Tennessee Jed
09 *#The Weight

Disc II 2nd Set

01 Tuning
02 Playin' In The Band >
03 Cryptical Envelopement >
04 The Other One >
05 Estimated Prophet >
06 Eyes Of The World >

Disc III 2nd Set Con't

01 ^Dark Star >
02 St. Stephen >
03 Turn On Your Lovelight >
04 Jam >
05 Dark Star >
06 Morning Dew >
07 Playin' In The Band
Encore:
08 Phil Donor Rap
09 Brokedown Palace

* With Larry Campbell On Guitar Abd Vocals
# With Teresa Williams On Vocals
^ With Low Rider Jam

Phil Lesh - Bass And Vocals
Jackie Greene - Guitar, Keyboards, And Vocals
Adam MacDougall - Keyboards And Vocals
John Kadlecik - Guitar And Vocals
Joe Russo - Drums

Flac Fingerprint

phil2012-11-18d01t01.flac:f27f709b0ee0d8430c961fbc6ee11cb9
phil2012-11-18d01t02.flac:9db5e779bbd0cf92555c8fc5c67a3690
phil2012-11-18d01t03.flac:fcde633ec9765551bc62387c3de08c86
phil2012-11-18d01t04.flac:d1781899d803ca14eaadc8ab60c0dc33
phil2012-11-18d01t05.flac:51092dfb51d1cb057844f79af62f8054
phil2012-11-18d01t06.flac:1ffdd57967ee22398d49d75f262d4042
phil2012-11-18d01t07.flac:629c45d4cc5a3b7a05b227e0eacf950d
phil2012-11-18d01t08.flac:45f2ea25bdd78e7419bc31327657a3c1
phil2012-11-18d01t09.flac:65c50b39b4d30ecc869072a715c058fe
phil2012-11-18d02t01.flac:c8f4b398533204ccd5240d2a6108d0c1
phil2012-11-18d02t02.flac:0ddb1cffa5643b53384b7d3c9addab0f
phil2012-11-18d02t03.flac:e4894e817e6c55cf0457851402ac4666
phil2012-11-18d02t04.flac:4e7c5de79446c23f5f26b47bf3f0211b
phil2012-11-18d02t05.flac:a88987b8d46ad42b6569e2da57eb028d
phil2012-11-18d02t06.flac:9a686e2867653c2c59eab3970b9818b8
phil2012-11-18d03t01.flac:8ab6efe4da809f48ad90d21f81883499
phil2012-11-18d03t02.flac:8c684aa9785bcc84cc0e7dfe752522bf
phil2012-11-18d03t03.flac:5bb19c1624267ef30c9f6b342a3ff4a5
phil2012-11-18d03t04.flac:e079739babca1bd5e4c69be5d2a382dc
phil2012-11-18d03t05.flac:dd6eededee9a75c283fd36c30f88f812
phil2012-11-18d03t06.flac:85376361c273ec9228f7548bf34ab6ed
phil2012-11-18d03t07.flac:e32fbf2e9f256932a17300d6518a8d4a
phil2012-11-18d03t08.flac:4736b311df127b8eaf578041dfe3e1ac
phil2012-11-18d03t09.flac:5c08be39dd70d7ad03287b445805ecc5

Shntool

length expanded size cdr WAVE problems fmt ratio filename
0:33.58 5957660 B --- -- ---xx flac 0.3663 phil2012-11-18d01t01.flac
14:07.35 149493164 B --- -- ---xx flac 0.5045 phil2012-11-18d01t02.flac
12:31.46 132584636 B --- -- ---xx flac 0.4971 phil2012-11-18d01t03.flac
9:15.02 97906748 B --- -- ---xx flac 0.5349 phil2012-11-18d01t04.flac
5:36.59 59409212 B --- -- ---xx flac 0.5178 phil2012-11-18d01t05.flac
10:17.73 109010540 B --- -- ---xx flac 0.5338 phil2012-11-18d01t06.flac
4:26.06 46936556 B --- -- ---xx flac 0.5766 phil2012-11-18d01t07.flac
11:48.09 124912412 B --- -- ---xx flac 0.5294 phil2012-11-18d01t08.flac
10:57.38 115984220 B --- -- ---xx flac 0.5344 phil2012-11-18d01t09.flac
1:12.16 12738476 B --- -- ---xx flac 0.4145 phil2012-11-18d02t01.flac
8:39.71 91718636 B --- -- ---xx flac 0.5298 phil2012-11-18d02t02.flac
4:31.59 47943212 B --- -- ---xx flac 0.5059 phil2012-11-18d02t03.flac
7:46.38 82291820 B --- -- ---xx flac 0.5364 phil2012-11-18d02t04.flac
7:43.58 81809660 B --- -- ---xx flac 0.5335 phil2012-11-18d02t05.flac
14:00.62 148321868 B --- -- ---xx flac 0.5188 phil2012-11-18d02t06.flac
10:06.41 106994876 B --- -- ---xx flac 0.5225 phil2012-11-18d03t01.flac
10:26.38 110515820 B --- -- ---xx flac 0.5554 phil2012-11-18d03t02.flac
6:19.26 66916796 B --- -- ---xx flac 0.5510 phil2012-11-18d03t03.flac
3:24.21 36035036 B --- -- ---xx flac 0.4953 phil2012-11-18d03t04.flac
6:32.09 69170012 B --- -- ---xx flac 0.4317 phil2012-11-18d03t05.flac
12:26.13 131625020 B --- -- ---xx flac 0.4819 phil2012-11-18d03t06.flac
7:28.11 79053116 B --- -- ---xx flac 0.5296 phil2012-11-18d03t07.flac
2:15.48 23926940 B --- -- ---xx flac 0.4443 phil2012-11-18d03t08.flac
6:34.08 69520460 B --- -- ---xx flac 0.4538 phil2012-11-18d03t09.flac
189:02.20 2000776896 B 0.5159 (24 files)










Checksumsphil2012-11-18d01t01.flac:f27f709b0ee0d8430c961fbc6ee11cb9<br />
phil2012-11-18d01t02.flac:9db5e779bbd0cf92555c8fc5c67a3690<br />
phil2012-11-18d01t03.flac:fcde633ec9765551bc62387c3de08c86<br />
phil2012-11-18d01t04.flac:d1781899d803ca14eaadc8ab60c0dc33<br />
phil2012-11-18d01t05.flac:51092dfb51d1cb057844f79af62f8054<br />
phil2012-11-18d01t06.flac:1ffdd57967ee22398d49d75f262d4042<br />
phil2012-11-18d01t07.flac:629c45d4cc5a3b7a05b227e0eacf950d<br />
phil2012-11-18d01t08.flac:45f2ea25bdd78e7419bc31327657a3c1<br />
phil2012-11-18d01t09.flac:65c50b39b4d30ecc869072a715c058fe<br />
phil2012-11-18d02t01.flac:c8f4b398533204ccd5240d2a6108d0c1<br />
phil2012-11-18d02t02.flac:0ddb1cffa5643b53384b7d3c9addab0f<br />
phil2012-11-18d02t03.flac:e4894e817e6c55cf0457851402ac4666<br />
phil2012-11-18d02t04.flac:4e7c5de79446c23f5f26b47bf3f0211b<br />
phil2012-11-18d02t05.flac:a88987b8d46ad42b6569e2da57eb028d<br />
phil2012-11-18d02t06.flac:9a686e2867653c2c59eab3970b9818b8<br />
phil2012-11-18d03t01.flac:8ab6efe4da809f48ad90d21f81883499<br />
phil2012-11-18d03t02.flac:8c684aa9785bcc84cc0e7dfe752522bf<br />
phil2012-11-18d03t03.flac:5bb19c1624267ef30c9f6b342a3ff4a5<br />
phil2012-11-18d03t04.flac:e079739babca1bd5e4c69be5d2a382dc<br />
phil2012-11-18d03t05.flac:dd6eededee9a75c283fd36c30f88f812<br />
phil2012-11-18d03t06.flac:85376361c273ec9228f7548bf34ab6ed<br />
phil2012-11-18d03t07.flac:e32fbf2e9f256932a17300d6518a8d4a<br />
phil2012-11-18d03t08.flac:4736b311df127b8eaf578041dfe3e1ac<br />
phil2012-11-18d03t09.flac:5c08be39dd70d7ad03287b445805ecc5
TypePhil Lesh & Friends
Last seederLast activity 7:28 ago
Size984.39 MB (1032207647 Bytes)
Added2012-11-19 02:34:51
Views0
Hits1349
Snatched845 times
Upped byzmanatl
Num files
[See full list]
25 files
Seeders
[Hide list]
0 Seeder(s)
Leechers
[Hide list]
0 Leecher(s)

Add a comment

zmanatl 2012-11-19 02:44:03
Great show. Loved having Larry and Teresa for 3 songs! Second set chock full of nuggets!

John had a great dinner for me when I got to his house in Norwalk. A Lettuce Wedge with Bleu Cheese, Chicken Marsala, and Bowtie Pasta with Baby Peas! It made tracking and flacing interesting!

Have to head to airport in 5 hours, so a 4 hour nap is now in my plans!

Enjoy show #165 of 2012!
taperpat 2012-11-19 03:01:21
amazing job Z-man. Thank you from the Pacific NW where we got to hear an amazing stream and now the down load from the fabulous Z-man!!!!! Thanks Phil & crew as well....
zmanatl 2012-11-19 03:42:55
Dark Star >
St. Stephen:
http://youtu.be/MHxtWt5XrhM
letitgro 2012-11-19 07:30:09
Z ... I'm sorry I missed you last night. I walked behind/through the TS a couple times but didn't see you. Great show!
bigdaddybflo 2012-11-19 08:48:09
Im no schoolboy but I know what I like,
You should have heard me just around midnight..... GO Z GO Z-Manimal !!!
indydarkstar 2012-11-19 08:49:20
thanks z,nice work as always
jsullivan 2012-11-19 11:03:28
Thanks a lot for the run zman! You're a hard working taper and your finished product is always golden.
phishmaverick 2012-11-19 11:22:27
thanks Z!
taperchuck2 2012-11-19 11:46:48
thanks for the shows zman!
jeetyet 2012-11-19 12:01:42
Z might be the last letter in the alphabet, but first in our hearts with the music he shares, thanks 4 this and all you do, happy thanksgiving, and enjoy today!
raygun 2012-11-19 13:06:54
Thanks Z!
Another monster show, really thought Phil was going to break the neck off the bass in set I!
He was a monster , evil eyes all night.
Thanks for a great run Phil!
rsterrapin 2012-11-19 13:15:12
Many thanks...this looks like a great show!
LazyLightning66 2012-11-19 18:40:43
Thanks Steve! heres how it 'sounds'/looks: http://www.youtube.com/watch?v=r7IIyr8q7MA
zmanatl 2012-11-19 21:37:46
Here is the link for LMA:
http://archive.org/details/plf2012-11-18
hucklive 2012-11-20 04:06:29
Many Thanks!
RasViKing 2012-11-20 15:02:55
Hope your nap was at least half as restful as this recording is HOT!!!

Listening now and Phil and Friends obviously brought on the show! And you brought it home for us to share! THANKS!!
dskglf 2012-11-21 16:13:46
Thank you Z-Man!

Add a comment


http://etree.org : http://db.etree.org : http://forums.etree.org : http://wiki.etree.org : Legal : RSS Feed

Contents designed & maintained by the etree.org volunteers
1998-2014, etree.org, except where noted. All Rights Reserved.
Read our terms of service and privacy guidelines