bt.etree.org
etree.org Community Bittorrent Tracker
ArtistGrateful Dead
Showgd89-10-18.sbd.walker.scotton.miller.83776.sbeok.flac16
Report this as
non-Trade-Friendly
Email us
Torrentgd89-10-18.sbd.walker.scotton.miller.83776.sbeok.flac16.torrent (click to download)
Downloads asgd89-10-18.sbd.walker.scotton.miller.83776.sbeok.flac16
Info hash2e40c6de4f3b546b1a7cf39d74e5dd7e15b6725f
db linkhttp://db.etree.org/shn/83776 | Show | Source
DescriptionGrateful Dead - October 18, 1989
The Spectrum - Philadelphia, PA

Recording Info:
SBD -> Cassette Master (TDK MA-XG90)

Transfer Info:
Cassette Master (Tascam 122mkII) -> Apogee MiniMe (24bit/48k) ->
Samplitude Professional v8.01 -> FLAC/16
(3 Discs Audio / 2 Discs FLAC)

All Transfers and Mastering By Charlie Miller
charliemiller87@earthlink.net
January 29, 2007

Patch Info:
(2) Nakamichi 300/CP4 + (1) Nakamichi 300/CP3 -> Cassette Master -> CD
From 1:41 in Drums to 6:21 in Space

Notes:
-- Set 2 is seamless
-- Thanks to Paul Scotton and Joani Walker for the tapes
-- Patch source recorded By Jill and Rob R.

Set 1:
d1t01 - Tuning
d1t02 - Shakedown Street
d1t03 - Little Red Rooster
d1t04 - Peggy-O
d1t05 - Queen Jane Approximately
d1t06 - Bird Song ->
d1t07 - The Music Never Stopped

Set 2:
d2t01 - Tuning
d2t02 - China Cat Sunflower ->
d2t03 - I Know You Rider
d2t04 - Ship Of Fools ->
d2t05 - Man Smart (Woman Smarter) ->
d2t06 - Terrapin Station ->
d2t07 - Drums ->
d3t01 - Space ->
d3t02 - Gimme Some Lovin' ->
d3t03 - All Along The Watchtower ->
d3t04 - Black Peter ->
d3t05 - Around And Around ->
d3t06 - Good Lovin'

Encore:
d3t07 - U.S. Blues


SHNTOOL OUTPUT:
length expanded size cdr WAVE problems filename
2:12.58 23421260 --- -- ----- gd89-10-18d1t01.wav
17:08.71 181506236 --- -- ----- gd89-10-18d1t02.wav
9:27.73 100190540 --- -- ----- gd89-10-18d1t03.wav
7:33.01 79911596 --- -- ----- gd89-10-18d1t04.wav
7:57.45 84248684 --- -- ----- gd89-10-18d1t05.wav
13:33.22 143464988 --- -- ----- gd89-10-18d1t06.wav
6:39.68 70543580 --- -- ----- gd89-10-18d1t07.wav
0:57.07 10071308 --- -- ----- gd89-10-18d2t01.wav
6:10.29 65336252 --- -- ----- gd89-10-18d2t02.wav
5:53.24 62325692 --- -- ----- gd89-10-18d2t03.wav
7:56.16 84004076 --- -- ----- gd89-10-18d2t04.wav
7:26.30 78745004 --- -- ----- gd89-10-18d2t05.wav
17:21.38 183721820 --- -- ----- gd89-10-18d2t06.wav
7:08.19 75543932 --- -- ----- gd89-10-18d2t07.wav
10:45.34 113858012 --- -- ----- gd89-10-18d3t01.wav
4:42.46 49853036 --- -- ----- gd89-10-18d3t02.wav
6:06.37 64649468 --- -- ----- gd89-10-18d3t03.wav
9:51.74 104426492 --- -- ----- gd89-10-18d3t04.wav
3:43.22 39388988 --- -- ----- gd89-10-18d3t05.wav
7:08.02 75503948 --- -- ----- gd89-10-18d3t06.wav
5:26.18 57548780 --- -- ----- gd89-10-18d3t07.wav
165:10.59 1748263692 B (totals for 21 files)
Checksums7d927366606aa3cef159c148370bd0cd *gd89-10-18d1t01.flac
ff7b3f094192453c0d9d82e166b11189 *gd89-10-18d1t02.flac
a9736c3d128a138d9a714bc82b2fc44d *gd89-10-18d1t03.flac
2266c5b27a22d15c27a8e388e724781b *gd89-10-18d1t04.flac
9369c6a27d19f93cd6c597d3f4b6cc84 *gd89-10-18d1t05.flac
80c8015f1d8a8a4088913557d6b3869a *gd89-10-18d1t06.flac
1bcc499ad001d679c50beb84bba0dcea *gd89-10-18d1t07.flac
a7e4ac6d733ca0fb9e8785d8a092c257 *gd89-10-18d2t01.flac
e23b877a57576c00d37e4abc65337250 *gd89-10-18d2t02.flac
a407ea9a7c24143b6b56d936e158f077 *gd89-10-18d2t03.flac
2de053088fa23d1d8dc7c0d39d2fe62d *gd89-10-18d2t04.flac
de46c319e8c09c8b911e627cd3d8ebf6 *gd89-10-18d2t05.flac
dab232f0a8afaea45d9c134456047fbb *gd89-10-18d2t06.flac
17842a8ccddf61a61820f0ae695e5de2 *gd89-10-18d2t07.flac
166ae81fb29f56b22852e89b3e219b82 *gd89-10-18d3t01.flac
a3c68a010e2d79f9dd354cbfb578fbf7 *gd89-10-18d3t02.flac
3c4c6af54fdb1eb9cce5b85dece159f0 *gd89-10-18d3t03.flac
5ed9941ed5b8683c6e5be56b7df1b6d1 *gd89-10-18d3t04.flac
e42aabbdfd4766e59869044e5af241e5 *gd89-10-18d3t05.flac
807bb90453eedb59a7ac5205951f2131 *gd89-10-18d3t06.flac
f1f9af50ea6bdca02fac807a13f47a4d *gd89-10-18d3t07.flac
TypeGrateful Dead
Last seederLast activity 2:49 ago
Size983.74 MB (1031521968 Bytes)
Added2012-11-19 10:09:16
Views0
Hits818
Snatched507 times
Upped byWHARFRAT73
Num files
[See full list]
24 files
Peers
[See full list]
3 seeders, 0 leechers = 3 peers total

Add a comment

bubbaz3 2012-11-19 18:48:33
thanks dude
bubbaz3 2012-11-19 19:02:08
how bought 9/12/90 and i wont ask for anything else call it a xmas gift

Add a comment


http://etree.org : http://db.etree.org : http://forums.etree.org : http://wiki.etree.org : Legal : RSS Feed

Contents designed & maintained by the etree.org volunteers
1998-2014, etree.org, except where noted. All Rights Reserved.
Read our terms of service and privacy guidelines