bt.etree.org
etree.org Community Bittorrent Tracker
ArtistOther
ShowRua Seis Eclipse Di Luna Atlanta, Georgia 11/20/2012 (Schoeps CCM4V'S FOB)
Report this as
non-Trade-Friendly
Email us
Torrentruaseis2012-11-20.flac16.torrent (click to download)
Downloads asruaseis2012-11-20.flac16
Info hash2eb6bbfc5ffba3d48391efd108f149e233096455
DescriptionRua Seis
Eclipse di Luna
Atlanta, Georgia
11/20/2012

Source: Schoeps CCM4V'S(din)>Lunatec V2>Benchmark AD2K>
Sound Devices 722 (24/48)
FOB/DFC/KFC/ZFC/AARP Stage Lip, 6 1/2' High
DSP: Sound Devices 722>Sound Forge 9.0>CD Wave>flac(16)
Recorded By: Z-Man
Seeded By: Z-Man

Disc I 1st Set

01 Tuning
02 Maquina de Ritmo
03 Banda Larga Cordel
04 Milhares de Samba
05 Smile
06 Tarzan o Filho do Alfaiate
07 Paren el Mundo
08 Andar com Fe
09 Vendendor de Carangueijo
10 O Homem Falou

Disc II 2nd Set

01 Tuning
02 Lua de Bauru
03 Flor de Lis
04 Tuareg e Nago
05 Samba de Verao
06 Eldorado Negro >
07 Valeu Raoni
08 E Isso Ai

Flac Fingerprint

ruaseis2012-11-20d01t01.flac:2c49b9b89e62d34c28a5b6ccbc942392
ruaseis2012-11-20d01t02.flac:94c7c4ba547af672d16808f94478884f
ruaseis2012-11-20d01t03.flac:f03d81efe0b1c019bbbf7626a17a8d28
ruaseis2012-11-20d01t04.flac:60a4ced2a263f5a9d6bb4e60f84f802b
ruaseis2012-11-20d01t05.flac:701290cb43454e5b1ca60926f91b3a67
ruaseis2012-11-20d01t06.flac:6138a60ae147e10b8977fe2e7eb9b87d
ruaseis2012-11-20d01t07.flac:b62c723aeac25e304381217fee323622
ruaseis2012-11-20d01t08.flac:580530f5b620251aa98e4f7525c79bff
ruaseis2012-11-20d01t09.flac:cb42fa81e86edc40f1667bfb3100bc07
ruaseis2012-11-20d01t10.flac:128338c461abe319e53befc789b09f7f
ruaseis2012-11-20d02t01.flac:4bcf86401f438fe105da367cb99185ff
ruaseis2012-11-20d02t02.flac:8fa420128b2a81edefad7430acf8c814
ruaseis2012-11-20d02t03.flac:b8e82d3de2e9132087f6c10f57ddd89d
ruaseis2012-11-20d02t04.flac:4ecd6e0efdd6b8ec6c97dc8978eb49ab
ruaseis2012-11-20d02t05.flac:fb430d003d9abedaa04dad70d6e5c817
ruaseis2012-11-20d02t06.flac:1f9ac7e0ff7675fa8babc8ea9917aea8
ruaseis2012-11-20d02t07.flac:a962e94bc0abaa0312501de9be61cd91
ruaseis2012-11-20d02t08.flac:fb8e02e7886bd9d9340afa6d321889fe

Shntool

length expanded size cdr WAVE problems fmt ratio filename
0:40.14 7088972 B --- -- ---xx flac 0.3441 ruaseis2012-11-20d01t01.flac
7:16.36 76995116 B --- -- ---xx flac 0.4875 ruaseis2012-11-20d01t02.flac
6:47.63 71943020 B --- -- ---xx flac 0.4655 ruaseis2012-11-20d01t03.flac
3:45.27 39753548 B --- -- ---xx flac 0.4953 ruaseis2012-11-20d01t04.flac
5:50.57 61874108 B --- -- ---xx flac 0.4759 ruaseis2012-11-20d01t05.flac
5:35.69 59256332 B --- -- ---xx flac 0.5109 ruaseis2012-11-20d01t06.flac
4:14.68 44965580 B --- -- ---xx flac 0.4978 ruaseis2012-11-20d01t07.flac
4:53.43 51786380 B --- -- ---xx flac 0.4713 ruaseis2012-11-20d01t08.flac
5:57.69 63137132 B --- -- ---xx flac 0.5116 ruaseis2012-11-20d01t09.flac
5:45.25 60916844 B --- -- ---xx flac 0.5357 ruaseis2012-11-20d01t10.flac
0:24.19 4278332 B --- -- ---xx flac 0.3032 ruaseis2012-11-20d02t01.flac
5:41.70 60317084 B --- -- ---xx flac 0.4753 ruaseis2012-11-20d02t02.flac
5:53.58 62405660 B --- -- ---xx flac 0.4278 ruaseis2012-11-20d02t03.flac
6:40.31 70632956 B --- -- ---xx flac 0.4978 ruaseis2012-11-20d02t04.flac
5:07.12 54183068 B --- -- ---xx flac 0.4563 ruaseis2012-11-20d02t05.flac
5:36.05 59282204 B --- -- ---xx flac 0.5294 ruaseis2012-11-20d02t06.flac
2:59.74 31749692 B --- -- ---xx flac 0.5155 ruaseis2012-11-20d02t07.flac
5:08.11 54357116 B --- -- ---xx flac 0.5182 ruaseis2012-11-20d02t08.flac
88:20.01 934923144 B 0.4889 (18 files)


Checksumsruaseis2012-11-20d01t01.flac:2c49b9b89e62d34c28a5b6ccbc942392
ruaseis2012-11-20d01t02.flac:94c7c4ba547af672d16808f94478884f
ruaseis2012-11-20d01t03.flac:f03d81efe0b1c019bbbf7626a17a8d28
ruaseis2012-11-20d01t04.flac:60a4ced2a263f5a9d6bb4e60f84f802b
ruaseis2012-11-20d01t05.flac:701290cb43454e5b1ca60926f91b3a67
ruaseis2012-11-20d01t06.flac:6138a60ae147e10b8977fe2e7eb9b87d
ruaseis2012-11-20d01t07.flac:b62c723aeac25e304381217fee323622
ruaseis2012-11-20d01t08.flac:580530f5b620251aa98e4f7525c79bff
ruaseis2012-11-20d01t09.flac:cb42fa81e86edc40f1667bfb3100bc07
ruaseis2012-11-20d01t10.flac:128338c461abe319e53befc789b09f7f
ruaseis2012-11-20d02t01.flac:4bcf86401f438fe105da367cb99185ff
ruaseis2012-11-20d02t02.flac:8fa420128b2a81edefad7430acf8c814
ruaseis2012-11-20d02t03.flac:b8e82d3de2e9132087f6c10f57ddd89d
ruaseis2012-11-20d02t04.flac:4ecd6e0efdd6b8ec6c97dc8978eb49ab
ruaseis2012-11-20d02t05.flac:fb430d003d9abedaa04dad70d6e5c817
ruaseis2012-11-20d02t06.flac:1f9ac7e0ff7675fa8babc8ea9917aea8
ruaseis2012-11-20d02t07.flac:a962e94bc0abaa0312501de9be61cd91
ruaseis2012-11-20d02t08.flac:fb8e02e7886bd9d9340afa6d321889fe
Visibleno (dead)
TypeOther
Last seederLast activity 215 days, 06:16:43 ago
Size435.89 MB (457064696 Bytes)
Added2012-11-21 00:14:57
Views0
Hits126
Snatched9 times
Upped byzmanatl
Num files
[See full list]
19 files
Seeders
[Hide list]
0 Seeder(s)
Leechers
[Hide list]
0 Leecher(s)

Add a comment

bigdaddybflo 2012-11-21 08:17:45
What was for late nite snack ??

Add a comment


http://etree.org : http://db.etree.org : http://forums.etree.org : http://wiki.etree.org : Legal : RSS Feed

Contents designed & maintained by the etree.org volunteers
1998-2014, etree.org, except where noted. All Rights Reserved.
Read our terms of service and privacy guidelines